↑↓Torrent.by
Поиск
Логин: Регистрация
Пароль: Восстановить пароль
Загрузка...

Пляжные крысы / Beach Rats (2017) WEBRip | L2

Скачать plyazhnye-krysy-beach-rats-2017-webrip-l2.torrent
U Магнитная ссылка Размер: 1.37 GB Раздают: 87 Качают: 59 Добавлен: 2017-11-11 14:40:32
Пляжные крысы / Beach Rats (2017) WEBRip | L2

Название: Пляжные крысы
Оригинальное название: Beach Rats

Год выхода: 2017
Жанр: Драма
Режиссер: Элиза Хиттман
В ролях: Тони Д’Антонио, Харрис Дикинсон, Фрэнк Чакеу, Кейт Ходж, Нил Хафф, Давид Иванов, Эрик Потемпа, Антон Селиванов,Харрисон Шихан и другие
О фильме:
Мрачная история бруклинского подростка Фрэнки, сбегающего от умирающего отца к друзьям-оторвам и сексу за деньги с мужчинами постарше. Попутно он знакомится с девушкой, к которой испытывает некие чувства.

Страна: США,  Cinereach, Animal Kingdom
Продолжительность: 01:38:41
Перевод: Любительский (двухголосый закадровый) | RecentFilms

Файл
Кодек: XviD
Качество: WEBRip
Видео: 720x400, 23,976 fps, ~1794 Kbps, 0.26 bit/pixel
Звук:
Аудио rus: AC3, 48 kHz, 2 ch, 192 Kbps
Субтитры: отсутствуют

Реклама: присутствует

Семпл

Релиз от: RecentFilms


[+] MediaInfo:

General
Complete name                            : F:FilmsBeach.Rats.2017.WEBRip.RecentFilmsBeach.Rats.2017.WEBRip.RecentFilms.avi
Format                                   : AVI
Format/Info                              : Audio Video Interleave
Format profile                           : OpenDML
File size                                : 1.37 GiB
Duration                                 : 1h 38mn
Overall bit rate                         : 1 993 Kbps
Writing application                      : Lavf57.71.100

Video
ID                                       : 0
Format                                   : MPEG-4 Visual
Format profile                           : Advanced Simple@L5
Format settings, BVOP                    : 1
Format settings, QPel                    : No
Format settings, GMC                     : No warppoints
Format settings, Matrix                  : Default (H.263)
Codec ID                                 : XVID
Codec ID/Hint                            : XviD
Duration                                 : 1h 38mn
Bit rate                                 : 1 789 Kbps
Width                                    : 720 pixels
Height                                   : 400 pixels
Display aspect ratio                     : 16:9
Frame rate                               : 23.976 (24000/1001) fps
Color space                              : YUV
Chroma subsampling                       : 4:2:0
Bit depth                                : 8 bits
Scan type                                : Progressive
Compression mode                         : Lossy
Bits/(Pixel*Frame)                       : 0.259
Stream size                              : 1.23 GiB (90%)
Writing library                          : XviD 67

Audio
ID                                       : 1
Format                                   : AC-3
Format/Info                              : Audio Coding 3
Mode extension                           : CM (complete main)
Format settings, Endianness              : Big
Codec ID                                 : 2000
Duration                                 : 1h 38mn
Bit rate mode                            : Constant
Bit rate                                 : 192 Kbps
Channel(s)                               : 2 channels
Channel positions                        : Front: L R
Sampling rate                            : 48.0 KHz
Frame rate                               : 31.250 fps (1536 spf)
Bit depth                                : 16 bits
Compression mode                         : Lossy
Stream size                              : 136 MiB (10%)
Alignment                                : Aligned on interleaves
Interleave, duration                     : 32 ms (0.77 video frame)




Скриншоты:
[+] Всего файлов в раздаче - 1:
Beach.Rats.2017.WEBRip.RecentFilms.avi1.37 GB

Текущая раздача:
ДатаКомментарии    РазмерПиры
2017-11-11 U Пляжные крысы / Beach Rats (2017) WEBRip | L2 2 К 1.37 GB ↑ 87 ↓ 59

Похожие раздачи по запросу - пляжные:
2017-11-11 U Пляжные крысы / Beach Rats (2017) WEBRip 720p | L2 1К1.51 GB ↑ 161 ↓ 66

Отзывы
maxbeer7
Спасибо RecentFilms! Такие упитанные самцы на постере, вау. Глобальная проблема современности: парни хотят заниматься сексом с мужиками, но попутно испытывают некие чувства к бабам. Хах. Девка явно лишняя в фильме. Хотя без неё было бы уже явное однополое порево

7Koston
Пид@ры и реклама. Что может быть лучше )))

Зарегистрируйтесь чтобы добавить комментарий.
Обратная связь
Copyleft ©