↑↓Torrent.by
Поиск
Логин: Регистрация
Пароль: Восстановить пароль
Загрузка...

Взрывная блондинка / Atomic Blonde (2017) BDRip-AVC от k.e.n & MegaPeer | D

Скачать vzryvnaya-blondinka-atomic-blonde-2017-bdrip-avc-ot-k-e-n-megapeer-d.torrent
U Магнитная ссылка Размер: 1.46 GB Раздают: 150 Качают: 34 Добавлен: 2017-11-11 20:27:19
Взрывная блондинка / Atomic Blonde (2017) BDRip-AVC от k.e.n & MegaPeer | D

Информация о фильме
Название: Взрывная блондинка
Оригинальное название: Atomic Blonde
Год выпуска: 2017
Жанр: Боевик, триллер, детектив
Режиссер: Дэвид Литч
В ролях: Шарлиз Терон, Джеймс МакЭвой, Эдди Марсан, Джон Гудмен, Тоби Джонс, Джеймс Фолкнер, Роланд Мёллер, София Бутелла, Билл Скарсгард, Сэм Харгрейв

О фильме: 1989 год. Берлин перед падением тяжкого наследия советского режима. Лоррейн Бротон - суперагент британской разведки, спортсменка, умница и - просто красавица, по заданию партии и правительства ищет некую микропленку со списком всех тайных агентов Запада. В своих поисках она вынуждена объединиться с главой берлинской резидентуры Дэвидом Персивалем, который только с виду интеллигентный молодой человек, аккуратный, вежливый и предупредительный. Вместе они противостоят идейным агентам КГБ и прочим суккубам, мечтающим заполучить вожделенный список и повернуть ход сражения в Холодной войне в свою пользу.

Страна: США
Студия: 87Eleven, Closed on Mondays Entertainment, Denver and Delilah Productions, Film i Väst 5. Focus Features, Sierra Pictures (III), T.G.I.M Films
Продолжительность: 01:54:44
Перевод: Дублированный | iTunes

Файл
Качество: BDRip-AVC
Видео: AVC, 960x402 (2.40:1), 23.976 fps, 1 434 Kbps (0.155 bit/pixel)
Аудио: AC-3, 48.0 KHz, 6 ch, 384 Kbps, CBR (Russian)
Субтитры: Русские (форс.), английские

Релиз:


[+] MediaInfo:
Формат                                   : Matroska
Версия формата                           : Version 2
Размер файла                             : 1,46 Гбайт
Продолжительность                        : 1 ч. 54 м.
Общий поток                              : 1820 Кбит/сек
Дата кодирования                         : UTC 2017-11-10 18:21:03
Программа кодирования                    : mkvmerge v5.3.0 ('I could have danced') built on Feb  9 2012 10:38:07
Библиотека кодирования                   : libebml v1.2.3 + libmatroska v1.3.0
Attachments                              : poster (6).jpg

Видео
Идентификатор                            : 1
Формат                                   : AVC
Формат/Информация                        : Advanced Video Codec
Профиль формата                          : High@L4.1
Параметр CABAC формата                   : Да
Параметр ReFrames формата                : 12 кадров
Идентификатор кодека                     : V_MPEG4/ISO/AVC
Продолжительность                        : 1 ч. 54 м.
Битрейт                                  : 1434 Кбит/сек
Ширина                                   : 960 пикселей
Высота                                   : 402 пикселя
Соотношение сторон                       : 2,40:1
Режим частоты кадров                     : Постоянный
Частота кадров                           : 23,976 (24000/1001) кадра/сек
Цветовое пространство                    : YUV
Субдискретизация насыщенности            : 4:2:0
Битовая глубина                          : 8 бит
Тип развёртки                            : Прогрессивная
Бит/(Пиксели*Кадры)                      : 0.155
Размер потока                            : 1,12 Гбайт (77%)
Библиотека кодирования                   : x264 core 146 r2538 121396c
Настройки программы                      : cabac=1 / ref=12 / deblock=1:-3:-3 / analyse=0x3:0x133 / me=umh / subme=11 / psy=1 / psy_rd=1.00:0.00 / mixed_ref=1 / me_range=32 / chroma_me=1 / trellis=2 / 8x8dct=1 / cqm=0 / deadzone=21,11 / fast_pskip=0 / chroma_qp_offset=-2 / threads=12 / lookahead_threads=3 / sliced_threads=0 / nr=0 / decimate=0 / interlaced=0 / bluray_compat=0 / constrained_intra=0 / bframes=11 / b_pyramid=2 / b_adapt=2 / b_bias=0 / direct=3 / weightb=1 / open_gop=0 / weightp=2 / keyint=240 / keyint_min=23 / scenecut=40 / intra_refresh=0 / rc=2pass / mbtree=0 / bitrate=1434 / ratetol=1.0 / qcomp=0.60 / qpmin=0 / qpmax=69 / qpstep=4 / cplxblur=20.0 / qblur=0.5 / ip_ratio=1.40 / pb_ratio=1.30 / aq=1:0.70
Язык                                     : English
Default                                  : Да
Forced                                   : Нет

Аудио
Идентификатор                            : 2
Формат                                   : AC-3
Формат/Информация                        : Audio Coding 3
Расширение режима                        : CM (complete main)
Параметр Endianness формата              : Big
Идентификатор кодека                     : A_AC3
Продолжительность                        : 1 ч. 54 м.
Вид битрейта                             : Постоянный
Битрейт                                  : 384 Кбит/сек
Каналы                                   : 6 каналов
Расположение каналов                     : Front: L C R, Side: L R, LFE
Частота                                  : 48,0 КГц
Частота кадров                           : 31,250 кадров/сек (1536 spf)
Битовая глубина                          : 16 бит
Метод сжатия                             : С потерями
Размер потока                            : 315 Мбайт (21%)
Заголовок                                : Dub
Язык                                     : Russian
Default                                  : Да
Forced                                   : Нет

Текст #1
Идентификатор                            : 3
Формат                                   : UTF-8
Идентификатор кодека                     : S_TEXT/UTF8
Идентификатор кодека/Информация          : UTF-8 Plain Text
Заголовок                                : Forced
Язык                                     : Russian
Default                                  : Да
Forced                                   : Нет

Текст #2
Идентификатор                            : 4
Формат                                   : UTF-8
Идентификатор кодека                     : S_TEXT/UTF8
Идентификатор кодека/Информация          : UTF-8 Plain Text
Заголовок                                : Full
Язык                                     : Russian
Default                                  : Нет
Forced                                   : Нет

Текст #3
Идентификатор                            : 5
Формат                                   : UTF-8
Идентификатор кодека                     : S_TEXT/UTF8
Идентификатор кодека/Информация          : UTF-8 Plain Text
Заголовок                                : Full
Язык                                     : English
Default                                  : Нет
Forced                                   : Нет

Меню
00:00:00.000                             : en:Chapter 1
00:06:47.990                             : en:Chapter 2
00:11:03.162                             : en:Chapter 3
00:18:17.221                             : en:Chapter 4
00:24:15.579                             : en:Chapter 5
00:27:47.165                             : en:Chapter 6
00:32:50.009                             : en:Chapter 7
00:36:20.094                             : en:Chapter 8
00:40:46.152                             : en:Chapter 9
00:47:55.664                             : en:Chapter 10
00:53:13.481                             : en:Chapter 11
00:59:54.090                             : en:Chapter 12
01:03:32.767                             : en:Chapter 13
01:08:03.788                             : en:Chapter 14
01:10:52.414                             : en:Chapter 15
01:18:27.452                             : en:Chapter 16
01:24:28.271                             : en:Chapter 17
01:32:44.267                             : en:Chapter 18
01:42:06.245                             : en:Chapter 19
01:48:21.077                             : en:Chapter 20



[+] x264 log:
x264 [info]: frame I:1116  Avg QP:15.65  size: 56573  PSNR Mean Y:47.68 U:50.33 V:49.07 Avg:48.22 Global:47.83
x264 [info]: frame P:37545 Avg QP:19.47  size: 15877  PSNR Mean Y:45.45 U:49.67 V:47.49 Avg:46.20 Global:45.71
x264 [info]: frame B:126397 Avg QP:21.16  size:  4549  PSNR Mean Y:45.23 U:49.83 V:47.35 Avg:46.00 Global:45.41



Скриншоты:
[+] Всего файлов в раздаче - 1:
Взрывная блондинка.2017 (Ш.Терон,Д.МакЭвой).k.e.n & MegaPeer.mkv1.46 GB

Текущая раздача:
ДатаКомментарии    РазмерПиры
2017-11-11 U Взрывная блондинка / Atomic Blonde (2017) BDRip-AVC от k.e.n & MegaPeer | D 1.46 GB ↑ 150 ↓ 34

Показать еще раздачи по запросу взрывная:
2017-11-17 U Взрывная блондинка / Atomic Blonde (2017) BDRip-AVC | iTunes 745.00 MB ↑ 54 ↓ 19
2017-11-12 U Взрывная блондинка / Atomic Blonde (2017) BDRip-HEVC 1080p от ХиМиК | iTunes 4.16 GB ↑ 90 ↓ 39
2017-11-11 U Взрывная блондинка / Atomic Blonde (2017) BDRip-HEVC 1080p от HEVC CLUB | iTunes 2К5.50 GB ↑ 132 ↓ 79
2017-11-10 U Взрывная блондинка / Atomic Blonde (2017) HDRip-AVC от ExKinoRay | iTunes, L 2.36 GB ↑ 54 ↓ 14
2017-11-07 U Взрывная блондинка / Atomic Blonde (2017) BDRip от MegaPeer | iTunes 1.41 GB ↑ 319 ↓ 134
2017-11-07 U Взрывная блондинка / Atomic Blonde (2017) BDRip 1080p от New-Team & qqss44 | iTunes 7.55 GB ↑ 168 ↓ 175
2017-11-07 U Взрывная блондинка / Atomic Blonde (2017) BDRemux 1080p от ExKinoRay | D 30.34 GB ↑ 49 ↓ 27

Отзывы
Зарегистрируйтесь чтобы добавить комментарий.
Обратная связь
Copyleft ©