↑↓Torrent.by
Поиск
Логин: Регистрация
Пароль: Восстановить пароль
Загрузка...

Взрывная блондинка / Atomic Blonde (2017) BDRip-HEVC 1080p от ХиМиК | iTunes

Скачать vzryvnaya-blondinka-atomic-blonde-2017-bdrip-hevc-1080p-ot-himik-itunes.torrent
U Магнитная ссылка Размер: 4.16 GB Раздают: 90 Качают: 35 Добавлен: 2017-11-12 07:48:51
Взрывная блондинка / Atomic Blonde (2017) BDRip-HEVC 1080p от ХиМиК | iTunes

Название: Взрывная блондинка
Оригинальное название: Atomic Blonde
Год выхода: 2017
Жанр: Боевик, триллер, детектив
Режиссер: Дэвид Литч
В ролях:
Шарлиз Терон, Джеймс МакЭвой, Эдди Марсан, Джон Гудмен, Тоби Джонс, Джеймс Фолкнер, Роланд Мёллер, София Бутелла, Билл Скарсгард, Сэм Харгрейв
Режиссёр: Дэвид Литч

О фильме:
Агент Лоррейн Бротон, бриллиант в короне Секретной разведывательной службы Ее Величества, не просто мастер шпионажа: она бомбически сексуальна, взрывоопасна и использует весь арсенал своих уникальных умений во время невыполнимых миссий. В неспокойном Берлине, куда ее направляют с заданием вернуть бесценное досье, она вынуждена объединиться с агентом под прикрытием Дэвидом Персивалем. Вместе им предстоит проложить путь через тернии смертельных шпионских игр.

Страна: Германия, Швеция, США
Продолжительность: 01:54:44
Перевод: Дублированный (iTunes)

Файл
Кодек: HEVC x265 10 bit
Качество: BDRip-HEVC 1080p
Видео: 1920x804 (2.40:1), 4356 Кбит/сек, 0.118 бит/(Пиксели*Кадры), 23.976 (24000/1001) кадр/сек, HEVC (Main10@L.5.1@High) 10 бит
Звук:
Русская, AC3, 448 kb/s, Front: L C R, Side: L R, LFE, 48.0 kHz (Дубляж iTunes)
Английская, AC3, 448 kb/s, Front: L C R, Side: L R, LFE, 48.0 kHz (Оригинал)
Субтитры: Русские (форсированные), английские (полные)
Разделение по главам: есть

Семпл

Релиз от: от XuMuK


[+] MediaInfo

General
Unique ID                   : 232322162985759356166917363223457222057 (0xAEC79EFCBBCCC1D3AA0176D76884CDA9)
Complete name               : I:HEVC 210 BITAtomic Blonde _2017_BDRip_1080p_[HEVC]_10bit.mkv
Format                      : Matroska
Format version              : Version 4 / Version 2
File size                   : 4.16 GiB
Duration                    : 1 h 54 min
Overall bit rate            : 5 190 kb/s
Encoded date                : UTC 2017-11-11 12:15:04
Writing application         : mkvmerge v9.9.0 ('Pick Up') 64bit
Writing library             : libebml v1.3.4 + libmatroska v1.4.5
Cover                       : Yes
Attachments                 : cover.png

Video
ID                          : 1
Format                      : HEVC
Format/Info                 : High Efficiency Video Coding
Format profile              : Main 10@L5.1@High
Codec ID                    : V_MPEGH/ISO/HEVC
Duration                    : 1 h 54 min
Bit rate                    : 4 356 kb/s
Width                       : 1 920 pixels
Height                      : 804 pixels
Display aspect ratio        : 2.40:1
Frame rate mode             : Constant
Frame rate                  : 23.976 (24000/1001) FPS
Color space                 : YUV
Chroma subsampling          : 4:2:0
Bit depth                   : 10 bits
Bits/(Pixel*Frame)          : 0.118
Stream size                 : 3.49 GiB (84%)
Writing library             : x265 2.5+14-2718cb5dd67f:[Windows][GCC 7.1.0][64 bit] 10bit
Encoding settings           : cpuid=1173503 / frame-threads=4 / numa-pools=16 / wpp / no-pmode / no-pme / no-psnr / no-ssim / log-level=2 / input-csp=1 / input-res=1920x804 / interlace=0 / total-frames=0 / level-idc=51 / high-tier=1 / uhd-bd=0 / ref=5 / no-allow-non-conformance / no-repeat-headers / annexb / no-aud / no-hrd / info / hash=0 / no-temporal-layers / open-gop / min-keyint=23 / keyint=240 / bframes=8 / b-adapt=2 / no-b-pyramid / bframe-bias=0 / rc-lookahead=40 / lookahead-slices=4 / scenecut=40 / no-intra-refresh / ctu=64 / min-cu-size=8 / rect / no-amp / max-tu-size=32 / tu-inter-depth=1 / tu-intra-depth=4 / limit-tu=0 / rdoq-level=1 / dynamic-rd=0.00 / no-ssim-rd / signhide / no-tskip / nr-intra=0 / nr-inter=0 / no-constrained-intra / no-strong-intra-smoothing / max-merge=3 / limit-refs=2 / no-limit-modes / me=3 / subme=7 / merange=57 / temporal-mvp / weightp / weightb / no-analyze-src-pics / deblock=-3:-3 / no-sao / no-sao-non-deblock / rd=4 / no-early-skip / no-rskip / no-fast-intra / no-tskip-fast / no-cu-lossless / no-b-intra / no-splitrd-skip / rdpenalty=0 / psy-rd=1.00 / psy-rdoq=1.00 / no-rd-refine / analysis-reuse-mode=0 / no-lossless / cbqpoffs=0 / crqpoffs=0 / rc=crf / crf=18.0 / qcomp=0.60 / qpstep=4 / stats-write=0 / stats-read=0 / vbv-maxrate=160000 / vbv-bufsize=160000 / vbv-init=0.9 / crf-max=0.0 / crf-min=0.0 / ipratio=1.40 / pbratio=1.30 / aq-mode=1 / aq-strength=0.80 / cutree / zone-count=1 / zones: / start-frame=156225 / end-frame=165058 / qp=35 / no-strict-cbr / qg-size=32 / no-rc-grain / qpmax=51 / qpmin=0 / no-const-vbv / sar=0 / overscan=0 / videoformat=5 / range=0 / colorprim=2 / transfer=2 / colormatrix=1 / chromaloc=0 / display-window=0 / max-cll=0,0 / min-luma=0 / max-luma=1023 / log2-max-poc-lsb=8 / vui-timing-info / vui-hrd-info / slices=1 / opt-qp-pps / opt-ref-list-length-pps / no-multi-pass-opt-rps / scenecut-bias=0.05 / no-opt-cu-delta-qp / no-aq-motion / no-hdr / no-hdr-opt / no-dhdr10-opt / analysis-reuse-level=5 / scale-factor=0 / refine-intra=0 / refine-inter=0 / refine-mv=0 / no-limit-sao / ctu-info=0
Default                     : Yes
Forced                      : Yes
Color range                 : Limited
Matrix coefficients         : BT.709

Audio #1
ID                          : 2
Format                      : AC-3
Format/Info                 : Audio Coding 3
Format settings, Endianness : Big
Codec ID                    : A_AC3
Duration                    : 1 h 54 min
Bit rate mode               : Constant
Bit rate                    : 384 kb/s
Channel(s)                  : 6 channels
Channel positions           : Front: L C R, Side: L R, LFE
Sampling rate               : 48.0 kHz
Frame rate                  : 31.250 FPS (1536 SPF)
Bit depth                   : 16 bits
Compression mode            : Lossy
Stream size                 : 315 MiB (7%)
Title                       : Dub
Language                    : Russian
Service kind                : Complete Main
Default                     : Yes
Forced                      : No

Audio #2
ID                          : 3
Format                      : AC-3
Format/Info                 : Audio Coding 3
Format settings, Endianness : Big
Codec ID                    : A_AC3
Duration                    : 1 h 54 min
Bit rate mode               : Constant
Bit rate                    : 448 kb/s
Channel(s)                  : 6 channels
Channel positions           : Front: L C R, Side: L R, LFE
Sampling rate               : 48.0 kHz
Frame rate                  : 31.250 FPS (1536 SPF)
Bit depth                   : 16 bits
Compression mode            : Lossy
Stream size                 : 368 MiB (9%)
Title                       : Original
Language                    : English
Service kind                : Complete Main
Default                     : No
Forced                      : No

Text #1
ID                          : 4
Format                      : UTF-8
Codec ID                    : S_TEXT/UTF8
Codec ID/Info               : UTF-8 Plain Text
Duration                    : 1 h 47 min
Bit rate                    : 2 b/s
Count of elements           : 42
Stream size                 : 1.64 KiB (0%)
Title                       : Forced
Language                    : Russian
Default                     : Yes
Forced                      : No

Text #2
ID                          : 5
Format                      : UTF-8
Codec ID                    : S_TEXT/UTF8
Codec ID/Info               : UTF-8 Plain Text
Duration                    : 1 h 47 min
Bit rate                    : 37 b/s
Count of elements           : 974
Stream size                 : 29.3 KiB (0%)
Title                       : Full
Language                    : English
Default                     : No
Forced                      : No

Menu
00:00:00.000                : :Chapter 1
00:06:47.990                : :Chapter 2
00:11:03.162                : :Chapter 3
00:18:17.221                : :Chapter 4
00:24:15.579                : :Chapter 5
00:27:47.165                : :Chapter 6
00:32:50.009                : :Chapter 7
00:36:20.094                : :Chapter 8
00:40:46.152                : :Chapter 9
00:47:55.664                : :Chapter 10
00:53:13.481                : :Chapter 11
00:59:54.090                : :Chapter 12
01:03:32.767                : :Chapter 13
01:08:03.788                : :Chapter 14
01:10:52.413                : :Chapter 15
01:18:27.452                : :Chapter 16
01:24:28.271                : :Chapter 17
01:32:44.267                : :Chapter 18
01:42:06.245                : :Chapter 19
01:48:21.077                : :Chapter 20



Скриншоты:
[+] Всего файлов в раздаче - 1:
Atomic Blonde _2017_BDRip_1080p_[HEVC]_10bit.mkv4.16 GB

Текущая раздача:
ДатаКомментарии    РазмерПиры
2017-11-12 U Взрывная блондинка / Atomic Blonde (2017) BDRip-HEVC 1080p от ХиМиК | iTunes 4.16 GB ↑ 90 ↓ 35

Показать еще раздачи по запросу взрывная:
2017-11-17 U Взрывная блондинка / Atomic Blonde (2017) BDRip-AVC | iTunes 745.00 MB ↑ 54 ↓ 17
2017-11-11 U Взрывная блондинка / Atomic Blonde (2017) BDRip-AVC от k.e.n & MegaPeer | D 1.46 GB ↑ 150 ↓ 34
2017-11-11 U Взрывная блондинка / Atomic Blonde (2017) BDRip-HEVC 1080p от HEVC CLUB | iTunes 2К5.50 GB ↑ 131 ↓ 79
2017-11-10 U Взрывная блондинка / Atomic Blonde (2017) HDRip-AVC от ExKinoRay | iTunes, L 2.36 GB ↑ 54 ↓ 14
2017-11-07 U Взрывная блондинка / Atomic Blonde (2017) BDRip от MegaPeer | iTunes 1.41 GB ↑ 316 ↓ 134
2017-11-07 U Взрывная блондинка / Atomic Blonde (2017) BDRip 1080p от New-Team & qqss44 | iTunes 7.55 GB ↑ 168 ↓ 173
2017-11-07 U Взрывная блондинка / Atomic Blonde (2017) BDRemux 1080p от ExKinoRay | D 30.34 GB ↑ 49 ↓ 27

Отзывы
Зарегистрируйтесь чтобы добавить комментарий.
Обратная связь
Copyleft ©