↑↓Torrent.by
Поиск
Логин: Регистрация
Пароль: Восстановить пароль
Загрузка...

Затмение (2016) BDRip 1080p от KORSAR | GER Transfer

Скачать zatmenie-2016-bdrip-1080p-ot-korsar-ger-transfer.torrent
U Магнитная ссылка Размер: 7.08 GB Раздают: 80 Качают: 76 Добавлен: 2017-11-12 07:49:33
Затмение (2016) BDRip 1080p от KORSAR | GER Transfer

Затмение
«Любовь сильнее любых заклятий!»

Страна: Россия
Жанр: фэнтези, приключения
Год выпуска: 2016
Продолжительность: 01:23:29
Перевод: Не требуется

Режиссер: Иван Кордзаия

В ролях: Александр Петров (Алекс), Диана Пожарская (Таня), Катя Кабак (Кристина), Сергей Бурунов (ведущий шоу Дмитрий Григорьев), Семён Лопатин (магистр Рустам), Кирилл Козаков (шаман), Денис Ясик (мастер Кан), Юлия Сулес (хозяйка рынка), Алексей Воронин (Семен Семенович Бударагин), Светлана Головина (знахарка Аглая), Вероника Вернадская (Инга), Андрей Перунов (декан)

Описание: Обаятельный авантюрист Алекс попадает в аварию, в результате которой знакомится с бывшей спортсменкой-фигуристкой Таней. Он влюбляется в нее с первого взгляда, но вскоре узнает, что на девушку наложено проклятье, обрекающее ее на вечное одиночество. Пытаясь избавить Таню от проклятья, Алекс выясняет, что полвека назад подобное произошло с другой молодой парой. Возможно, там, в 60-х, находится ключ к спасению героини.

Семпл

Качество: BDRip 1080p
Контейнер: MKV
Видео: AVC, 1920x800 (2.40:1), 11500 kbps, 23,976 fps, 0,312 bpp
Аудио: русский / AC3 / 5.1 / 48 kHz / 640 kbps
Навигация по главам: есть


[+] Media Info


Формат                                   : Matroska
Версия формата                           : Version 2
Размер файла                             : 7,08 Гбайт
Продолжительность                        : 1 ч. 23 м.
Общий поток                              : 12,1 Мбит/сек
Название фильма                          : = Затмение (2016) BDRip 1080p - KORSAR =
Дата кодирования                         : UTC 2017-11-11 05:18:33
Программа кодирования                    : mkvmerge v5.8.0 ('No Sleep / Pillow') built on Sep  2 2012 15:37:04
Библиотека кодирования                   : libebml v1.2.3 + libmatroska v1.3.0
Attachment                               : Yes

Видео
Идентификатор                            : 1
Формат                                   : AVC
Формат/Информация                        : Advanced Video Codec
Профиль формата                          : High@L4.1
Параметр CABAC формата                   : Да
Параметр ReFrames формата                : 5 кадров
Идентификатор кодека                     : V_MPEG4/ISO/AVC
Продолжительность                        : 1 ч. 23 м.
Битрейт                                  : 11,5 Мбит/сек
Ширина                                   : 1920 пикселей
Высота                                   : 800 пикселей
Соотношение сторон                       : 2,40:1
Режим частоты кадров                     : Постоянный
Частота кадров                           : 23,976 кадра/сек
Цветовое пространство                    : YUV
Субдискретизация насыщенности            : 4:2:0
Битовая глубина                          : 8 бит
Тип развёртки                            : Прогрессивная
Бит/(Пиксели*Кадры)                      : 0.312
Размер потока                            : 6,56 Гбайт (93%)
Заголовок                                : Затмение (2016) BDRip 1080p - KORSAR
Библиотека кодирования                   : x264 core 148 r2744kMod b97ae06
Настройки программы                      : cabac=1 / ref=5 / deblock=1:-3:-3 / analyse=0x3:0x113 / me=umh / subme=11 / psy=1 / fade_compensate=0.00 / psy_rd=1.00:0.00 / mixed_ref=1 / me_range=32 / chroma_me=1 / trellis=2 / 8x8dct=1 / cqm=0 / deadzone=21,11 / fast_pskip=0 / chroma_qp_offset=-2 / threads=12 / lookahead_threads=3 / sliced_threads=0 / nr=0 / decimate=0 / interlaced=0 / bluray_compat=0 / constrained_intra=0 / bframes=10 / b_pyramid=2 / b_adapt=2 / b_bias=0 / direct=3 / weightb=1 / open_gop=0 / weightp=2 / keyint=240 / keyint_min=23 / scenecut=40 / intra_refresh=0 / rc_lookahead=60 / rc=2pass / mbtree=0 / bitrate=11500 / ratetol=1.0 / qcomp=0.60 / qpmin=0 / qpmax=39 / qpstep=4 / cplxblur=20.0 / qblur=0.5 / vbv_maxrate=50000 / vbv_bufsize=62500 / nal_hrd=none / filler=0 / ip_ratio=1.40 / pb_ratio=1.30 / aq=1:0.80
Язык                                     : Russian
Default                                  : Да
Forced                                   : Нет
Основные цвета                           : BT.709
Характеристики трансфера                 : BT.709
Коэффициенты матрицы                     : BT.709

Аудио
Идентификатор                            : 2
Формат                                   : AC-3
Формат/Информация                        : Audio Coding 3
Расширение режима                        : CM (complete main)
Параметр Endianness формата              : Big
Идентификатор кодека                     : A_AC3
Продолжительность                        : 1 ч. 23 м.
Вид битрейта                             : Постоянный
Битрейт                                  : 640 Кбит/сек
Каналы                                   : 6 каналов
Расположение каналов                     : Front: L C R, Side: L R, LFE
Частота                                  : 48,0 КГц
Битовая глубина                          : 16 бит
Метод сжатия                             : С потерями
Размер потока                            : 382 Мбайт (5%)
Язык                                     : Russian
Default                                  : Да
Forced                                   : Нет

Меню
00:00:00.000                             : en:Chapter 01
00:01:08.359                             : en:Chapter 02
00:06:30.139                             : en:Chapter 03
00:11:51.335                             : en:Chapter 04
00:18:57.761                             : en:Chapter 05
00:28:25.495                             : en:Chapter 06
00:37:39.632                             : en:Chapter 07
00:44:04.933                             : en:Chapter 08
00:49:26.213                             : en:Chapter 09
00:59:06.000                             : en:Chapter 10
01:11:25.197                             : en:Chapter 11
01:22:02.125                             : en:Chapter 12



Скриншоты:
[+] Всего файлов в раздаче - 1:
Zatmenie.BDRip.1080p.KORSAR.mkv7.08 GB

Текущая раздача:
ДатаКомментарии    РазмерПиры
2017-11-12 U Затмение (2016) BDRip 1080p от KORSAR | GER Transfer 7.08 GB ↑ 80 ↓ 76

Похожие раздачи по запросу - затмение:
2016-12-18 U Затмение (2016) HDRip от GeneralFilm | Лицензия 1.36 GB ↑ 744 ↓ 119
2016-12-17 U Затмение (2016) HDRip-AVC от ExKinoRay | Лицензия 1.46 GB ↑ 755 ↓ 79
2016-11-10 U Антикварное общество: Затмение над Месиной. Коллекционное издание (2016) PC 1.44 GB ↑ 364 ↓ 52
2016-05-04 U Затмение [01-04 из 04] (2015) HDTVRip-AVC от Files-x 5.60 GB ↑ 46 ↓ 8
2016-05-02 U Затмение [01-04 из 04] (2015) HDTVRip от Files-x 5.47 GB ↑ 213 ↓ 104

Отзывы
Зарегистрируйтесь чтобы добавить комментарий.
Обратная связь
Copyleft ©