↑↓Torrent.by
Поиск
Логин: Регистрация
Пароль: Восстановить пароль
Загрузка...

Барракуда / Barracuda (2017) HDRip | L2

Скачать barrakuda-barracuda-2017-hdrip-l2.torrent
U Магнитная ссылка Размер: 1.36 GB Раздают: 53 Качают: 7 Добавлен: 2017-11-12 07:50:53
Барракуда / Barracuda (2017) HDRip | L2

Название: Барракуда
Оригинальное название: Barracuda

Год выхода: 2017
Жанр: Триллер, драма, музыка
Режиссер: Джулия Гэльперин
В ролях: Эллисон Толман, Софи Рид, ДжоБет Уильямс, Луис Бордонада, Ларри Дотсон, Тэннер Бирд, Моника Строу, Дэннис Алком и другие
О фильме:
Странная женщина приезжает в Техас, чтобы встретиться со своей родной по отцу сестрой и претендовать на наследие семейной музыки - так или иначе.

Страна: США, Small Drama, Blue Suitcase Productions, Orka
Продолжительность: 01:41:44
Перевод: Любительский (двухголосый закадровый) | RecentFilms

Файл
Кодек: XviD
Качество: HDRip
Видео: 720x384, 23,976 fps, ~1709 Kbps, 0.26 bit/pixel
Звук:
Аудио rus: AC3, 48 kHz, 2 ch, 192 Kbps
Субтитры: отсутствуют

Реклама: присутствует

Семпл

Релиз от: RecentFilms


[+] MediaInfo:

General
Complete name                            : F:FilmsBarracuda.2017.HDRip.RecentFilmsBarracuda.2017.HDRip.RecentFilms.avi
Format                                   : AVI
Format/Info                              : Audio Video Interleave
Format profile                           : OpenDML
File size                                : 1.36 GiB
Duration                                 : 1h 41mn
Overall bit rate                         : 1 908 Kbps
Writing application                      : Lavf57.71.100

Video
ID                                       : 0
Format                                   : MPEG-4 Visual
Format profile                           : Advanced Simple@L5
Format settings, BVOP                    : 1
Format settings, QPel                    : No
Format settings, GMC                     : No warppoints
Format settings, Matrix                  : Default (H.263)
Codec ID                                 : XVID
Codec ID/Hint                            : XviD
Duration                                 : 1h 41mn
Bit rate                                 : 1 704 Kbps
Width                                    : 720 pixels
Height                                   : 384 pixels
Display aspect ratio                     : 1.85:1
Frame rate                               : 23.976 (24000/1001) fps
Color space                              : YUV
Chroma subsampling                       : 4:2:0
Bit depth                                : 8 bits
Scan type                                : Progressive
Compression mode                         : Lossy
Bits/(Pixel*Frame)                       : 0.257
Stream size                              : 1.21 GiB (89%)
Writing library                          : XviD 67

Audio
ID                                       : 1
Format                                   : AC-3
Format/Info                              : Audio Coding 3
Mode extension                           : CM (complete main)
Format settings, Endianness              : Big
Codec ID                                 : 2000
Duration                                 : 1h 41mn
Bit rate mode                            : Constant
Bit rate                                 : 192 Kbps
Channel(s)                               : 2 channels
Channel positions                        : Front: L R
Sampling rate                            : 48.0 KHz
Frame rate                               : 31.250 fps (1536 spf)
Bit depth                                : 16 bits
Compression mode                         : Lossy
Stream size                              : 140 MiB (10%)
Alignment                                : Aligned on interleaves
Interleave, duration                     : 32 ms (0.77 video frame)




Скриншоты:
[+] Всего файлов в раздаче - 1:
Barracuda.2017.HDRip.RecentFilms.avi1.36 GB

Отзывы
anaximandr_vex
Для любителей американской деревенщины - кантри, унылость и тонны жира на бедрах.

Зарегистрируйтесь чтобы добавить комментарий.
Обратная связь
Copyleft ©