↑↓Torrent.by
Поиск
Логин: Регистрация
Пароль: Восстановить пароль
Загрузка...

Призрак в доспехах / Ghost in the Shell (2017) UHD BDRip 2160p | 4K | Лицензия

Скачать prizrak-v-dospehah-ghost-in-the-shell-2017-uhd-bdrip-2160p-4k-licenziya.torrent
U Магнитная ссылка Размер: 12.17 GB Раздают: 49 Качают: 27 Добавлен: 2017-11-12 07:51:30
Призрак в доспехах / Ghost in the Shell (2017) UHD BDRip 2160p | 4K | Лицензия

Название: Призрак в доспехах
Оригинальное название: Ghost in the Shell
Год выхода: 2017
Жанр: Фантастика, боевик, триллер, драма, криминал, детектив
Режиссер: Руперт Сандерс
В ролях: Скарлетт Йоханссон, Йохан Филип Асбек, Такеши Китано, Жюльетт Бинош, Майкл Питт, Чин Хань, Дануся Самал, Ласарус Ратуэре, Ютака Идзумихара, Таванда Маниймо

О фильме:
Кибер-технологии подчинили себе все сферы жизни, а самые опасные преступники переместились в виртуальное пространство. Киборг-гибрид, стоящий во главе элитного подразделения полиции, идет по следу могущественного хакера.

Страна: США
Студия: Arad Productions, DreamWorks, Grosvenor Park Productions
Продолжительность: 01:46:57
Перевод: Дублированный | Лицензия

Файл
Кодек: x265
Контейнер: MKV
Качество: UHD BDRip 2160p | 4K
Видео: 3840 x 2160, 10.8 Mb/s, 23.976 (24000/1001) FPS
Звук:
Аудио #01: 48 kHz, AC3, 5.1, 640 Kbps, дублированный, лицензия (RUS)
Аудио #02: 48 kHz, TrueHD Atmos, 7.1, 4131 kb/s Kbps, оригинал (ENG)
Аудио #03: 48 kHz, AC3, 5.1, 640 Kbps, оригинал (ENG)

Субтитры: Русские (forced, full), английские (full, SDH), французские (full), португальские (full), испанские (full)


[+] MediaInfo
General
Unique ID                                : 255148302225030387758301670133319152421 (0xBFF3C68A8A9DAB91A9F7DFE4C3CD3325)
Complete name                            : Ghost.in.the.Shell.2017.2160p.UHD.BluRay.x265-TERMiNAL-RUS.mkv
Format                                   : Matroska
Format version                           : Version 4 / Version 2
File size                                : 12.2 GiB
Duration                                 : 1 h 46 min
Overall bit rate mode                    : Variable
Overall bit rate                         : 16.3 Mb/s
Encoded date                             : UTC 2017-11-11 01:20:31
Writing application                      : mkvmerge v17.0.0 ('Be Ur Friend') 64-bit
Writing library                          : libebml v1.3.5 + libmatroska v1.4.8

Video
ID                                       : 1
Format                                   : HEVC
Format/Info                              : High Efficiency Video Coding
Format profile                           : Main 10@L5.1@High
Codec ID                                 : V_MPEGH/ISO/HEVC
Duration                                 : 1 h 46 min
Bit rate                                 : 10.8 Mb/s
Width                                    : 3 840 pixels
Height                                   : 2 160 pixels
Display aspect ratio                     : 16:9
Frame rate mode                          : Constant
Frame rate                               : 23.976 (24000/1001) FPS
Color space                              : YUV
Chroma subsampling                       : 4:2:0 (Type 2)
Bit depth                                : 10 bits
Bits/(Pixel*Frame)                       : 0.054
Stream size                              : 8.05 GiB (66%)
Writing library                          : x265 2.5+38-8a121d8cc134:[Windows][GCC 6.2.1][64 bit] 10bit
Encoding settings                        : cpuid=1173503 / frame-threads=4 / numa-pools=20 / wpp / no-pmode / no-pme / no-psnr / no-ssim / log-level=2 / input-csp=1 / input-res=3840x2160 / interlace=0 / total-frames=153828 / level-idc=51 / high-tier=1 / uhd-bd=1 / ref=4 / no-allow-non-conformance / repeat-headers / annexb / aud / hrd / info / hash=0 / no-temporal-layers / no-open-gop / min-keyint=1 / keyint=24 / bframes=4 / b-adapt=2 / b-pyramid / bframe-bias=0 / rc-lookahead=25 / lookahead-slices=4 / scenecut=40 / no-intra-refresh / ctu=64 / min-cu-size=8 / rect / no-amp / max-tu-size=32 / tu-inter-depth=1 / tu-intra-depth=1 / limit-tu=0 / rdoq-level=2 / dynamic-rd=0.00 / no-ssim-rd / signhide / no-tskip / nr-intra=0 / nr-inter=0 / no-constrained-intra / no-strong-intra-smoothing / max-merge=3 / limit-refs=3 / limit-modes / me=3 / subme=3 / merange=57 / temporal-mvp / weightp / no-weightb / no-analyze-src-pics / deblock=-3:-3 / no-sao / no-sao-non-deblock / rd=4 / no-early-skip / rskip / no-fast-intra / no-tskip-fast / no-cu-lossless / no-b-intra / no-splitrd-skip / rdpenalty=0 / psy-rd=2.00 / psy-rdoq=1.00 / no-rd-refine / analysis-reuse-mode=0 / no-lossless / cbqpoffs=0 / crqpoffs=0 / rc=crf / crf=17.0 / qcomp=0.60 / qpstep=4 / stats-write=0 / stats-read=0 / vbv-maxrate=160000 / vbv-bufsize=160000 / vbv-init=0.9 / crf-max=0.0 / crf-min=0.0 / ipratio=1.40 / pbratio=1.30 / aq-mode=1 / aq-strength=1.00 / cutree / zone-count=0 / no-strict-cbr / qg-size=32 / no-rc-grain / qpmax=69 / qpmin=0 / no-const-vbv / sar=1 / overscan=0 / videoformat=5 / range=0 / colorprim=9 / transfer=16 / colormatrix=9 / chromaloc=1 / chromaloc-top=2 / chromaloc-bottom=2 / display-window=0 / master-display=G(13250,34500)B(7500,3000)R(34000,16000)WP(15635,16450)L(10000000,50) / max-cll=0,0 / min-luma=0 / max-luma=1023 / log2-max-poc-lsb=8 / vui-timing-info / vui-hrd-info / slices=1 / opt-qp-pps / opt-ref-list-length-pps / no-multi-pass-opt-rps / scenecut-bias=0.05 / no-opt-cu-delta-qp / no-aq-motion / hdr / hdr-opt / no-dhdr10-opt / analysis-reuse-level=5 / scale-factor=0 / refine-intra=0 / refine-inter=0 / refine-mv=0 / no-limit-sao / ctu-info=0 / no-lowpass-dct
Default                                  : Yes
Forced                                   : No
Color range                              : Limited
Color primaries                          : BT.2020
Transfer characteristics                 : PQ
Matrix coefficients                      : BT.2020 non-constant
Mastering display color primaries        : R: x=0.680000 y=0.320000, G: x=0.265000 y=0.690000, B: x=0.150000 y=0.060000, White point: x=0.312700 y=0.329000
Mastering display luminance              : min: 0.0050 cd/m2, max: 1000.0000 cd/m2

Audio #1
ID                                       : 4
Format                                   : AC-3
Format/Info                              : Audio Coding 3
Codec ID                                 : A_AC3
Duration                                 : 1 h 46 min
Bit rate mode                            : Constant
Bit rate                                 : 640 kb/s
Channel(s)                               : 6 channels
Channel positions                        : Front: L C R, Side: L R, LFE
Sampling rate                            : 48.0 kHz
Frame rate                               : 31.250 FPS (1536 SPF)
Bit depth                                : 16 bits
Compression mode                         : Lossy
Stream size                              : 490 MiB (4%)
Title                                    : Russian License
Language                                 : Russian
Service kind                             : Complete Main
Default                                  : Yes
Forced                                   : Yes

Audio #2
ID                                       : 5
Format                                   : TrueHD
Format profile                           : TrueHD+Atmos / TrueHD
Codec ID                                 : A_TRUEHD
Duration                                 : 1 h 46 min
Bit rate mode                            : Variable
Bit rate                                 : 4 131 kb/s
Maximum bit rate                         : 7 710 kb/s
Channel(s)                               : Object Based / 8 channels
Channel positions                        : Object Based / Front: L C R, Side: L R, Back: L R, LFE
Sampling rate                            :  / 48.0 kHz
Frame rate                               : 1 200.000 FPS (40 SPF)
Compression mode                         : Lossless
Stream size                              : 3.09 GiB (25%)
Title                                    : English TrueHD Atmos
Language                                 : English
Default                                  : No
Forced                                   : No

Audio #3
ID                                       : 6
Format                                   : AC-3
Format/Info                              : Audio Coding 3
Codec ID                                 : A_AC3
Duration                                 : 1 h 46 min
Bit rate mode                            : Constant
Bit rate                                 : 640 kb/s
Channel(s)                               : 6 channels
Channel positions                        : Front: L C R, Side: L R, LFE
Sampling rate                            : 48.0 kHz
Frame rate                               : 31.250 FPS (1536 SPF)
Bit depth                                : 16 bits
Compression mode                         : Lossy
Stream size                              : 489 MiB (4%)
Title                                    : English AC-3
Language                                 : English
Service kind                             : Complete Main
Default                                  : No
Forced                                   : No

Text #1
ID                                       : 2
Format                                   : UTF-8
Codec ID                                 : S_TEXT/UTF8
Codec ID/Info                            : UTF-8 Plain Text
Duration                                 : 1 h 44 min
Bit rate                                 : 4 b/s
Count of elements                        : 75
Stream size                              : 3.56 KiB (0%)
Title                                    : Russian Subtitles [FORCED]
Language                                 : Russian
Default                                  : Yes
Forced                                   : No

Text #2
ID                                       : 3
Format                                   : UTF-8
Codec ID                                 : S_TEXT/UTF8
Codec ID/Info                            : UTF-8 Plain Text
Duration                                 : 1 h 44 min
Bit rate                                 : 56 b/s
Count of elements                        : 916
Stream size                              : 43.0 KiB (0%)
Title                                    : Russian Subtitles [FULL]
Language                                 : Russian
Default                                  : No
Forced                                   : No

Text #3
ID                                       : 7
Format                                   : PGS
Muxing mode                              : zlib
Codec ID                                 : S_HDMV/PGS
Codec ID/Info                            : Picture based subtitle format used on BDs/HD-DVDs
Duration                                 : 1 h 34 min
Bit rate                                 : 21.7 kb/s
Count of elements                        : 1770
Stream size                              : 14.7 MiB (0%)
Title                                    : English Subtitles
Language                                 : English
Default                                  : No
Forced                                   : No

Text #4
ID                                       : 8
Format                                   : PGS
Muxing mode                              : zlib
Codec ID                                 : S_HDMV/PGS
Codec ID/Info                            : Picture based subtitle format used on BDs/HD-DVDs
Duration                                 : 1 h 35 min
Bit rate                                 : 27.7 kb/s
Count of elements                        : 2258
Stream size                              : 18.9 MiB (0%)
Title                                    : English SDH
Language                                 : English
Default                                  : No
Forced                                   : No

Text #5
ID                                       : 9
Format                                   : PGS
Muxing mode                              : zlib
Codec ID                                 : S_HDMV/PGS
Codec ID/Info                            : Picture based subtitle format used on BDs/HD-DVDs
Duration                                 : 1 h 36 min
Bit rate                                 : 24.5 kb/s
Count of elements                        : 1998
Stream size                              : 16.8 MiB (0%)
Title                                    : French Subtitles
Language                                 : French
Default                                  : No
Forced                                   : No

Text #6
ID                                       : 10
Format                                   : PGS
Muxing mode                              : zlib
Codec ID                                 : S_HDMV/PGS
Codec ID/Info                            : Picture based subtitle format used on BDs/HD-DVDs
Duration                                 : 1 h 36 min
Bit rate                                 : 22.9 kb/s
Count of elements                        : 1810
Stream size                              : 15.7 MiB (0%)
Title                                    : Spanish Subtitles
Language                                 : Spanish
Default                                  : No
Forced                                   : No

Text #7
ID                                       : 11
Format                                   : PGS
Muxing mode                              : zlib
Codec ID                                 : S_HDMV/PGS
Codec ID/Info                            : Picture based subtitle format used on BDs/HD-DVDs
Duration                                 : 1 h 36 min
Bit rate                                 : 21.8 kb/s
Count of elements                        : 1828
Stream size                              : 15.0 MiB (0%)
Title                                    : Portuguese Subtitles
Language                                 : Portuguese
Default                                  : No
Forced                                   : No

Menu
00:00:00.000                             : en:00:00:00.000
00:08:09.364                             : en:00:08:09.364
00:14:40.004                             : en:00:14:40.004
00:21:26.535                             : en:00:21:26.535
00:28:02.723                             : en:00:28:02.723
00:34:13.260                             : en:00:34:13.260
00:39:27.657                             : en:00:39:27.657
00:43:57.844                             : en:00:43:57.844
00:51:49.857                             : en:00:51:49.857
00:55:19.107                             : en:00:55:19.107
01:01:06.913                             : en:01:01:06.913
01:07:49.774                             : en:01:07:49.774
01:14:37.014                             : en:01:14:37.014
01:20:31.785                             : en:01:20:31.785
01:27:46.219                             : en:01:27:46.219
01:33:41.449                             : en:01:33:41.449
01:38:00.124                             : en:01:38:00.124



Скриншоты:
[+] Всего файлов в раздаче - 1:
Ghost.in.the.Shell.2017.2160p.UHD.BluRay.x265-TERMiNAL-RUS.mkv12.17 GB

Текущая раздача:
ДатаКомментарии    РазмерПиры
2017-11-12 U Призрак в доспехах / Ghost in the Shell (2017) UHD BDRip 2160p | 4K | Лицензия 12.17 GB ↑ 49 ↓ 27

Показать еще раздачи по запросу призрак:
2017-08-21 U Нота-призрак / Ghost Note (2017) WEB-DLRip | L 1К1.36 GB ↑ 102 ↓ 51
2017-08-10 U Призрак в доспехах / Koukaku Kidoutai / Ghost in the Shell (1995) BDRip HEVC 720p | D, P 3.16 GB ↑ 100 ↓ 12
2017-07-29 U Призрак в доспехах / Ghost in the Shell (2017) BDRip 1080p от HELLYWOOD | Лицензия 6.74 GB ↑ 222 ↓ 65
2017-07-24 U Призрак в доспехах / Ghost in the Shell (2017) HDRip от Scarabey | Лицензия 1.45 GB ↑ 234 ↓ 72
2017-07-24 U Призрак в доспехах / Ghost in the Shell (2017) BDRip 1080p | 3D-Video | halfOU | Лицензия 2К6.73 GB ↑ 110 ↓ 84
2017-07-23 U Призрак в доспехах / Ghost in the Shell (2017) BDRip 720p от Scarabey | Лицензия 4.09 GB ↑ 138 ↓ 33
2017-07-23 U Призрак в доспехах / Ghost in the Shell (2017) BDRip 720p от HELLYWOOD | Лицензия 4.37 GB ↑ 189 ↓ 39

Отзывы
Зарегистрируйтесь чтобы добавить комментарий.
Обратная связь
Copyleft ©