↑↓Torrent.by
Поиск
Логин: Регистрация
Пароль: Восстановить пароль
Загрузка...

Импровизация [эфир 09.11] (2017) WEB-DL 720p

Скачать improvizaciya-efir-09-11-2017-web-dl-720p.torrent
U Магнитная ссылка Размер: 1.19 GB Раздают: 46 Качают: 4 Добавлен: 2017-11-12 07:52:58
Импровизация [эфир 09.11] (2017) WEB-DL 720p

Дата/Год выпуска: 09.11.2017
Страна: Россия
Жанр:  Юмор
Продолжительность: 00:44:47
Перевод: Не требуется
Русские субтитры: нет

Оригинальная аудиодорожка: русский
Ведущий: Павел Воля

Телеканал: ТНТ
Описание: «Импровизация» — это новое непредсказуемое комедийное шоу от Comedy Club Production. В нём нет сценария и всё, происходящее на сцене, придумывается участниками на ходу. Под управлением ведущего Павла Воли четыре комика и один звездный гость оказываются в самых странных ситуациях — и выбираются из них с юмором. Прежде, чем попасть на экран, четыре участника «Импровизации» (Арсений Попов, Дима Позов, Сергей Матвиенко и Антон Шастун) несколько лет совершенствовали этот формат на клубных вечеринках.
Каждый выпуск шоу разбит на части, в которых действуют свои правила: например, в одной комики должны разговаривать только вопросами, в другой — ходят с завязанными глазами по комнате с мышеловками, в третьей — шутят с электрошокерами на руках, которые бьют их током. В каждом шоу к комикам присоединяется приглашенная звезда. Только в «Импровизации» можно заставить певицу Сати Казанову выслушивать, как комики дают интервью от её лица, Ольгу Бузову — подавать реплики, как суфлер, а Мигеля угадывать, кем он был в прошлой жизни. «Импровизация» — шоу для тех, кому надоел предсказуемый юмор и кто хочет посмотреть, каково комикам на сцене без сценария и заготовленных шуток.
«Комедия импровизации — весьма распространенный формат в Европе, в Америке. В каждом вузе, в каждой школе есть импровизационная команда. При этом это традиционный жанр, он уходит корнями в итальянский театр масок», — говорит креативный продюсер шоу Стас Шеминов. Импровизация — вершина комедийного спорта, уважаемый жанр, которым мечтаю заниматься многие комики, но который требует постоянной практики. Участники «Импровизации» посвятили этому жанру несколько лет — и стали настоящими мастерами.

Качество: WEB-DL 720p
Формат: MKV
Видео: AVC, 1280x720 (16:9), 25.000 fps, 3 524 Kbps (0.153 bit/pixel)
Аудио: AC-3, 44.1 KHz, 2 ch, 192 Kbps, CBR
[+] Список выпусков/серий

сезон 3, выпуск 19



[+] MediaInfo

Общее
Уникальный идентификатор                 : 237037900038076675716739806477841646209 (0xB253D6C654E39B4C8BE936A5D1D8C281)
Формат                                   : Matroska
Версия формата                           : Version 4 / Version 2
Размер файла                             : 1,19 Гбайт
Продолжительность                        : 44 м.
Общий поток                              : 3791 Кбит/сек
Название фильма                          : Импровизация. Сезон 3. Выпуск 19 (2017.11.09)_720_nnm-club.name
Дата кодирования                         : UTC 2017-11-10 03:45:28
Программа кодирования                    : mkvmerge v17.0.0 ('Be Ur Friend') 64-bit
Библиотека кодирования                   : libebml v1.3.5 + libmatroska v1.4.8
Attachements                             : nnm-club.name.png
DURATION                                 : 00:44:46.990000000
NUMBER_OF_FRAMES                         : 77146
NUMBER_OF_BYTES                          : 64487758
_STATISTICS_WRITING_APP                  : mkvmerge v17.0.0 ('Be Ur Friend') 64-bit
_STATISTICS_WRITING_DATE_UTC             : 2017-11-10 03:45:28
_STATISTICS_TAGS                         : BPS DURATION NUMBER_OF_FRAMES NUMBER_OF_BYTES

Видео
Идентификатор                            : 1
Формат                                   : AVC
Формат/Информация                        : Advanced Video Codec
Профиль формата                          : High@L3.1
Параметр CABAC формата                   : Да
Параметр ReFrames формата                : 1 кадр
Параметр GOP формата                     : M=1, N=12
Идентификатор кодека                     : V_MPEG4/ISO/AVC
Продолжительность                        : 44 м.
Битрейт                                  : 3524 Кбит/сек
Ширина                                   : 1280 пикселей
Высота                                   : 720 пикселей
Соотношение сторон                       : 16:9
Режим частоты кадров                     : Постоянный
Частота кадров                           : 25,000 кадров/сек
Стандарт вещания                         : Component
Цветовое пространство                    : YUV
Субдискретизация насыщенности            : 4:2:0
Битовая глубина                          : 8 бит
Тип развёртки                            : Прогрессивная
Бит/(Пиксели*Кадры)                      : 0.153
Размер потока                            : 1,10 Гбайт (93%)
Язык                                     : English
Default                                  : Да
Forced                                   : Нет
Цветовой диапазон                        : Limited

Аудио
Идентификатор                            : 2
Формат                                   : AC-3
Формат/Информация                        : Audio Coding 3
Расширение режима                        : CM (complete main)
Параметр Endianness формата              : Big
Идентификатор кодека                     : A_AC3
Продолжительность                        : 44 м.
Вид битрейта                             : Постоянный
Битрейт                                  : 192 Кбит/сек
Каналы                                   : 2 канала
Расположение каналов                     : Front: L R
Частота                                  : 44,1 КГц
Битовая глубина                          : 16 бит
Метод сжатия                             : С потерями
Размер потока                            : 61,5 Мбайт (5%)
Default                                  : Да
Forced                                   : Нет




Скриншоты:
[+] Всего файлов в раздаче - 1:
Импровизация. Сезон 3. Выпуск 19 (2017.11.09)_720.mkv1.19 GB

Текущая раздача:
ДатаКомментарии    РазмерПиры
2017-11-12 U Импровизация [эфир 09.11] (2017) WEB-DL 720p 1.19 GB ↑ 46 ↓ 4

Похожие раздачи по запросу - импровизация:
2017-11-17 U Импровизация [эфир 16.11] (2017) WEBRip 720p 1.21 GB ↑ 82 ↓ 21

Отзывы
Зарегистрируйтесь чтобы добавить комментарий.
Обратная связь
Copyleft ©