↑↓Torrent.by
Поиск
Логин: Регистрация
Пароль: Восстановить пароль
Загрузка...

Голос монстра / A Monster Calls (2016) BDRip 1080p от ExKinoRay | Лицензия

Скачать golos-monstra-a-monster-calls-2016-bdrip-1080p-ot-exkinoray-licenziya.torrent
U Магнитная ссылка Размер: 9.13 GB Раздают: 91 Качают: 61 Добавлен: 2017-11-12 16:47:25
Голос монстра / A Monster Calls (2016) BDRip 1080p от ExKinoRay | Лицензия

Название: Голос монстра
Оригинальное название: A Monster Calls
Год выхода: 2016
Жанр: Фэнтези, драма
Режиссер: Хуан Антонио Байона
В ролях: Льюис МакДугалл, Сигурни Уивер, Фелисити Джонс, Тоби Кеббелл, Бен Моор, Джеймс Мелвилл, Оливер Стир, Доминик Бойл, Дженнифер Лим, Макс Габбей

О фильме:
Поражающая воображение история о мальчике Конноре и монстре из его снов. Когда Коннору особенно тяжело, происходит нечто невероятное — старое тисовое дерево за окном оживает и превращается в громадное чудовище. По ночам монстр рассказывает Коннору истории, которые помогут ему понять, что даже когда весь мир рушится, можно найти в себе силы и не отчаиваться.

Страна: США, Испания
Студия: Apaches Entertainment, La Trini, Monster Calls, A, Participant Media, River Road Entertainment
Продолжительность: 01:48:36
Перевод: Дублированный | Лицензия

Файл
Качество: BDRip 1080p
Видео: MPEG-4 AVC, 1920x804, 9457 Kbit/s, 23.976 fps
Звук:
Аудио #01: 48 kHz, DTS, 5.1, 1510 Kbps | Дублированный |RUS
Аудио #02: 48 kHz, AC3, 5.1, 640 Kbps | Дублированный |RUS
Аудио #03: 48 kHz, AC3, 5.1, 448 kbps | Оригинал |ENG
Субтитры: Русские, английские

Релиз: Автор релиза:


[+] MI
General
Unique ID                   : 251559235487822257035935685714654672940 (0xBD408BE393FC26F7A887C3D6A2B2382C)
Complete name               : G:VideoSSDA.Monster.Calls.2016.BDRip.1080p.ExKinoRay.mkv
Format                      : Matroska
Format version              : Version 4 / Version 2
File size                   : 9.13 GiB
Duration                    : 1 h 48 min
Overall bit rate            : 12.1 Mb/s
Encoded date                : UTC 2017-11-12 04:19:09
Writing application         : mkvmerge v17.0.0 ('Be Ur Friend') 64-bit
Writing library             : libebml v1.3.5 + libmatroska v1.4.8

Video
ID                          : 1
Format                      : AVC
Format/Info                 : Advanced Video Codec
Format profile              : High@L4.1
Format settings             : CABAC / 5 Ref Frames
Format settings, CABAC      : Yes
Format settings, RefFrames  : 5 frames
Codec ID                    : V_MPEG4/ISO/AVC
Duration                    : 1 h 48 min
Bit rate                    : 9 457 kb/s
Width                       : 1 920 pixels
Height                      : 804 pixels
Display aspect ratio        : 2.40:1
Frame rate mode             : Constant
Frame rate                  : 23.976 (24000/1001) FPS
Color space                 : YUV
Chroma subsampling          : 4:2:0
Bit depth                   : 8 bits
Scan type                   : Progressive
Bits/(Pixel*Frame)          : 0.256
Stream size                 : 7.16 GiB (78%)
Writing library             : x264 core 148 r2692+46 0f71ed5 7mod [8-bit@all X86_64]
Encoding settings           : cabac=1 / ref=5 / deblock=1:-3:-3 / analyse=0x3:0x113 / me=umh / subme=11 / psy=1 / fade_compensate=0.00 / psy_rd=1.00:0.00 / mixed_ref=1 / me_range=48 / chroma_me=1 / trellis=2 / 8x8dct=1 / cqm=0 / deadzone=11,6 / fast_pskip=0 / chroma_qp_offset=-2 / threads=25 / lookahead_threads=4 / sliced_threads=0 / nr=0 / decimate=0 / interlaced=0 / bluray_compat=0 / constrained_intra=0 / fgo=0 / bframes=8 / b_pyramid=2 / b_adapt=2 / b_bias=0 / direct=3 / weightb=1 / open_gop=0 / weightp=2 / keyint=250 / keyint_min=23 / scenecut=40 / intra_refresh=0 / rc_lookahead=60 / rc=crf / mbtree=0 / crf=17.5000 / qcomp=0.65 / qpmin=0:0:0 / qpmax=32:32:32 / qpstep=4 / vbv_maxrate=40000 / vbv_bufsize=30000 / crf_max=0.0 / nal_hrd=none / filler=0 / ip_ratio=1.30 / pb_ratio=1.20 / aq=4:0.75 / aq-sensitivity=10.00 / aq-factor=1.00:1.00:1.00 / aq2=0 / aq3=0
Language                    : English
Default                     : Yes
Forced                      : No
Color range                 : Limited
Color primaries             : BT.709
Transfer characteristics    : BT.709
Matrix coefficients         : BT.709

Audio #1
ID                          : 2
Format                      : DTS
Format/Info                 : Digital Theater Systems
Mode                        : 16
Format settings, Endianness : Big
Codec ID                    : A_DTS
Duration                    : 1 h 48 min
Bit rate mode               : Constant
Bit rate                    : 1 509 kb/s
Channel(s)                  : 6 channels
Channel positions           : Front: L C R, Side: L R, LFE
Sampling rate               : 48.0 kHz
Frame rate                  : 93.750 FPS (512 SPF)
Bit depth                   : 24 bits
Compression mode            : Lossy
Stream size                 : 1.14 GiB (13%)
Title                       : Dub [License]
Language                    : Russian
Default                     : Yes
Forced                      : No

Audio #2
ID                          : 3
Format                      : AC-3
Format/Info                 : Audio Coding 3
Format settings, Endianness : Big
Codec ID                    : A_AC3
Duration                    : 1 h 48 min
Bit rate mode               : Constant
Bit rate                    : 640 kb/s
Channel(s)                  : 6 channels
Channel positions           : Front: L C R, Side: L R, LFE
Sampling rate               : 48.0 kHz
Frame rate                  : 31.250 FPS (1536 SPF)
Bit depth                   : 16 bits
Compression mode            : Lossy
Stream size                 : 496 MiB (5%)
Title                       : Dub [License]
Language                    : Russian
Service kind                : Complete Main
Default                     : No
Forced                      : No

Audio #3
ID                          : 4
Format                      : AC-3
Format/Info                 : Audio Coding 3
Format settings, Endianness : Big
Codec ID                    : A_AC3
Duration                    : 1 h 48 min
Bit rate mode               : Constant
Bit rate                    : 448 kb/s
Channel(s)                  : 6 channels
Channel positions           : Front: L C R, Side: L R, LFE
Sampling rate               : 48.0 kHz
Frame rate                  : 31.250 FPS (1536 SPF)
Bit depth                   : 16 bits
Compression mode            : Lossy
Stream size                 : 347 MiB (4%)
Title                       : Original
Language                    : English
Service kind                : Complete Main
Default                     : No
Forced                      : No

Text #1
ID                          : 5
Format                      : UTF-8
Codec ID                    : S_TEXT/UTF8
Codec ID/Info               : UTF-8 Plain Text
Duration                    : 1 h 35 min
Bit rate                    : 72 b/s
Count of elements           : 878
Stream size                 : 51.0 KiB (0%)
Title                       : Full [iTunes]
Language                    : Russian
Default                     : No
Forced                      : No

Text #2
ID                          : 6
Format                      : UTF-8
Codec ID                    : S_TEXT/UTF8
Codec ID/Info               : UTF-8 Plain Text
Duration                    : 1 h 35 min
Bit rate                    : 42 b/s
Count of elements           : 939
Stream size                 : 29.6 KiB (0%)
Title                       : Full
Language                    : English
Default                     : No
Forced                      : No

Menu
00:00:00.000                : en:00:00:00.000
00:08:12.659                : en:00:08:12.659
00:15:35.601                : en:00:15:35.601
00:24:41.480                : en:00:24:41.480
00:31:50.909                : en:00:31:50.909
00:38:50.703                : en:00:38:50.703
00:50:10.925                : en:00:50:10.925
00:55:48.095                : en:00:55:48.095
01:03:51.661                : en:01:03:51.661
01:13:11.679                : en:01:13:11.679
01:19:19.296                : en:01:19:19.296
01:28:52.494                : en:01:28:52.494
01:40:36.030                : en:01:40:36.030



Скриншоты:
[+] Всего файлов в раздаче - 1:
A.Monster.Calls.2016.BDRip.1080p.ExKinoRay.mkv9.13 GB

Текущая раздача:
ДатаКомментарии    РазмерПиры
2017-11-12 U Голос монстра / A Monster Calls (2016) BDRip 1080p от ExKinoRay | Лицензия 3 К 9.13 GB ↑ 91 ↓ 61

Показать еще раздачи по запросу голос:
2017-11-13 U Голос монстра / A Monster Calls (2016) BDRip 1080p от New-Team & qqss44 | Лицензия 7.60 GB ↑ 33 ↓ 19
2017-11-12 U Голос монстра / A Monster Calls (2016) BDRip-AVC от HELLYWOOD | Лицензия 1.46 GB ↑ 81 ↓ 18
2017-11-12 U Голос монстра / A Monster Calls (2016) BDRip 720p от ExKinoRay | Лицензия 1К4.92 GB ↑ 71 ↓ 61
2017-11-12 U Голос монстра / A Monster Calls (2016) BDRip от MegaPeer | Лицензия 3К1.46 GB ↑ 75 ↓ 50
2017-11-04 U Голос [06х01-10] (2017) HDTVRip от GeneralFilm 14.23 GB ↑ 97 ↓ 461
2017-10-28 U Голос [06х01-09] (2017) HDTVRip от GeneralFilm 12.82 GB ↑ 42 ↓ 281
2017-10-20 U Голос [06х01-08] (2017) HDTVRip от GeneralFilm 11.38 GB ↑ 84 ↓ 204

Отзывы
mixaliuga
мрачняк какой-то для вангафилов

lazan1983
Последний раз я так был впечатлен мультфильмом "Головоломка", фильм достойный и глубокий

netspasibo
Хороший фильм, но грустный

Зарегистрируйтесь чтобы добавить комментарий.
Обратная связь
Copyleft ©