↑↓Torrent.by
Поиск
Логин: Регистрация
Пароль: Восстановить пароль
Загрузка...

Сука / Bitch (2017) WEBRip | L2

Скачать suka-bitch-2017-webrip-l2.torrent
U Магнитная ссылка Размер: 1.38 GB Раздают: 119 Качают: 74 Добавлен: 2017-11-12 19:47:41
Сука / Bitch (2017) WEBRip | L2

Название: Сука
Оригинальное название: Bitch

Год выхода: 2017
Жанр: Триллер, драма, комедия, семейный
Режиссер: Марианна Пока
В ролях: Кэролайн Аарон, Эрик Эдельштейн, Кингстон Фостер, Рен Ханами, Джейми Кинг, Лииса Ли, Рио Манджини, Джейм Мойер и другие
О фильме:
Провокационная история о женщине, которая не выдержала давления жизни, и стала вести себя как злая собака. Её муж-изменник, которого никогда нет рядом, вынужден сблизиться с их четырьмя детьми и сестрой жены, чтобы сохранить семью во время этого странного кризиса.

Страна: США, Company X, MarVista Entertainment, SpectreVision
Продолжительность: 01:36:59
Перевод: Любительский (двухголосый закадровый) | RecentFilms

Файл
Кодек: XviD
Качество: WEBRip
Видео: 720x304, 23,976 fps, ~1844 Kbps, 0.35 bit/pixel
Звук:
Аудио rus: AC3, 48 kHz, 2 ch, 192 Kbps
Субтитры: отсутствуют

Реклама: присутствует

Семпл

Релиз от: RecentFilms


[+] MediaInfo:

General
Complete name                            : F:FilmsBitch.2017.WEBRip.RecentFilmsBitch.2017.WEBRip.RecentFilms.avi
Format                                   : AVI
Format/Info                              : Audio Video Interleave
Format profile                           : OpenDML
File size                                : 1.38 GiB
Duration                                 : 1h 36mn
Overall bit rate                         : 2 044 Kbps
Writing application                      : Lavf57.71.100

Video
ID                                       : 0
Format                                   : MPEG-4 Visual
Format profile                           : Advanced Simple@L5
Format settings, BVOP                    : 1
Format settings, QPel                    : No
Format settings, GMC                     : No warppoints
Format settings, Matrix                  : Default (H.263)
Codec ID                                 : XVID
Codec ID/Hint                            : XviD
Duration                                 : 1h 36mn
Bit rate                                 : 1 839 Kbps
Width                                    : 720 pixels
Height                                   : 304 pixels
Display aspect ratio                     : 2.40:1
Frame rate                               : 23.976 (24000/1001) fps
Color space                              : YUV
Chroma subsampling                       : 4:2:0
Bit depth                                : 8 bits
Scan type                                : Progressive
Compression mode                         : Lossy
Bits/(Pixel*Frame)                       : 0.351
Stream size                              : 1.25 GiB (90%)
Writing library                          : XviD 67

Audio
ID                                       : 1
Format                                   : AC-3
Format/Info                              : Audio Coding 3
Mode extension                           : CM (complete main)
Format settings, Endianness              : Big
Codec ID                                 : 2000
Duration                                 : 1h 36mn
Bit rate mode                            : Constant
Bit rate                                 : 192 Kbps
Channel(s)                               : 2 channels
Channel positions                        : Front: L R
Sampling rate                            : 48.0 KHz
Frame rate                               : 31.250 fps (1536 spf)
Bit depth                                : 16 bits
Compression mode                         : Lossy
Stream size                              : 133 MiB (9%)
Alignment                                : Aligned on interleaves
Interleave, duration                     : 32 ms (0.77 video frame)




Скриншоты:
[+] Всего файлов в раздаче - 1:
Bitch.2017.WEBRip.RecentFilms.avi1.38 GB

Текущая раздача:
ДатаКомментарии    РазмерПиры
2017-11-12 U Сука / Bitch (2017) WEBRip | L2 1.38 GB ↑ 119 ↓ 74

Похожие раздачи по запросу - сука:
2017-11-13 U Сука / Bitch (2017) WEBRip 720p | L2 2К2.69 GB ↑ 58 ↓ 34

Отзывы
Зарегистрируйтесь чтобы добавить комментарий.
Обратная связь
Copyleft ©