↑↓Torrent.by
Поиск
Логин: Регистрация
Пароль: Восстановить пароль
Загрузка...

Демон внутри / Вскрытие Джейн Доу / The Autopsy of Jane Doe (2016) BDRip 1080p от New-Team & qqss44 | Лицензия

Скачать demon-vnutri-vskrytie-dzheyn-dou-the-autopsy-of-jane-doe-2016-bdrip-1080p-ot-new-team-qqss44-licenziya.torrent
U Магнитная ссылка Размер: 5.58 GB Раздают: 63 Качают: 36 Добавлен: 2017-11-12 19:51:13
Демон внутри / Вскрытие Джейн Доу / The Autopsy of Jane Doe (2016) BDRip 1080p от New-Team & qqss44 | Лицензия

Название: Демон внутри (Вскрытие Джейн Доу)
Оригинальное название: The Autopsy of Jane Doe
Год выпуска: 2016
Жанр: Ужасы
Режиссер: Андре Овредал
В ролях: Эмиль Хирш, Брайан Кокс, Офелия Ловибонд, Майкл МакЭлхаттон, Олуэн Катрин Келли, Паркер Сойерс, Джейн Перри, Ив О’Хара

О фильме:
Тилдены. Морг и крематорий. Вот уже третье поколение Тилдены исправно выполняют свою работу. "Если взялись за дело, то выполняем его до конца!" Именно так звучит девиз этой небольшой семейной фирмы. Старший Тилден помогает полиции раскрывать преступления, используя свои обширные знания и опыт. Однажды, давний друг Тильманов, инспектор Берг, привозит в морг тело девушки, личность которой невозможно установить. Так же он просит провести вскрытие до утра следующего дня. Отец с сыном принимаются за работу...

Страна: Великобритания
Студия: 42, IM Global, Impostor Pictures
Продолжительность: 01:26:22
Перевод: Профессиональный (многоголосый, закадровый) | Лицензия

Файл
Формат: MKV, BDRip 1080p
Видео: MPEG-4 AVC, 8600 Кбит/с, 1920x800
Aудио#1: [RUS] AC3 | 48 KHz | 5.1 (Front: L С R Side: L R) + LFE | ~640 kbps
Субтитры: русские (полные),
Релиз от:


[+] МИ

Общее
Уникальный идентификатор                 : 179201834869607553195074118543328508295 (0x86D1049AC2947D78A895DC1156297987)
Полное имя                               : X:0000The.Autopsy.of.Jane.Doe.2016.BDRip.1080p.(qqss44).mkv
Формат                                   : Matroska
Версия формата                           : Version 2
Размер файла                             : 5,58 Гбайт
Продолжительность                        : 1 ч. 26 м.
Общий поток                              : 9232 Кбит/сек
Название фильма                          : The.Autopsy.of.Jane.Doe.2016.BDRip.1080p.(qqss44)
Дата кодирования                         : UTC 2017-11-12 09:58:16
Программа кодирования                    : mkvmerge v5.8.0 ('No Sleep / Pillow') built on Sep  2 2012 15:37:04
Библиотека кодирования                   : libebml v1.2.3 + libmatroska v1.3.0

Видео
Идентификатор                            : 1
Формат                                   : AVC
Формат/Информация                        : Advanced Video Codec
Профиль формата                          : High@L4.1
Параметр CABAC формата                   : Да
Параметр ReFrames формата                : 5 кадров
Идентификатор кодека                     : V_MPEG4/ISO/AVC
Продолжительность                        : 1 ч. 26 м.
Битрейт                                  : 8600 Кбит/сек
Ширина                                   : 1920 пикселей
Высота                                   : 800 пикселей
Соотношение сторон                       : 2,40:1
Режим частоты кадров                     : Постоянный
Частота кадров                           : 23,976 (24000/1001) кадра/сек
Цветовое пространство                    : YUV
Субдискретизация насыщенности            : 4:2:0
Битовая глубина                          : 8 бит
Тип развёртки                            : Прогрессивная
Бит/(Пиксели*Кадры)                      : 0.234
Размер потока                            : 5,08 Гбайт (91%)
Библиотека кодирования                   : x264 core 152 r2851kMod ba24899
Настройки программы                      : cabac=1 / ref=5 / deblock=1:-3:-3 / analyse=0x3:0x113 / me=umh / subme=11 / psy=1 / fade_compensate=0.00 / psy_rd=1.00:0.00 / mixed_ref=1 / me_range=32 / chroma_me=1 / trellis=2 / 8x8dct=1 / cqm=0 / deadzone=21,11 / fast_pskip=0 / chroma_qp_offset=-2 / threads=12 / lookahead_threads=3 / sliced_threads=0 / nr=0 / decimate=0 / interlaced=0 / bluray_compat=0 / constrained_intra=0 / bframes=10 / b_pyramid=2 / b_adapt=2 / b_bias=0 / direct=3 / weightb=1 / open_gop=0 / weightp=2 / keyint=240 / keyint_min=23 / scenecut=40 / intra_refresh=0 / rc_lookahead=40 / rc=2pass / mbtree=0 / bitrate=8600 / ratetol=1.0 / qcomp=0.65 / qpmin=0 / qpmax=69 / qpstep=4 / cplxblur=20.0 / qblur=0.5 / vbv_maxrate=50000 / vbv_bufsize=62500 / nal_hrd=none / filler=0 / ip_ratio=1.40 / pb_ratio=1.30 / aq=3:0.70
Язык                                     : English
Default                                  : Да
Forced                                   : Нет

Аудио
Идентификатор                            : 2
Формат                                   : AC-3
Формат/Информация                        : Audio Coding 3
Расширение режима                        : CM (complete main)
Параметр Endianness формата              : Big
Идентификатор кодека                     : A_AC3
Продолжительность                        : 1 ч. 26 м.
Вид битрейта                             : Постоянный
Битрейт                                  : 640 Кбит/сек
Каналы                                   : 6 каналов
Расположение каналов                     : Front: L C R, Side: L R, LFE
Частота                                  : 48,0 КГц
Частота кадров                           : 31,250 кадров/сек (1536 spf)
Метод сжатия                             : С потерями
Размер потока                            : 396 Мбайт (7%)
Язык                                     : Russian
Default                                  : Да
Forced                                   : Нет

Текст
Идентификатор                            : 3
Формат                                   : UTF-8
Идентификатор кодека                     : S_TEXT/UTF8
Идентификатор кодека/Информация          : UTF-8 Plain Text
Язык                                     : Russian
Default                                  : Нет
Forced                                   : Нет

Меню
00:00:00.000                             : en:00:00:00.000
00:15:18.417                             : en:00:15:18.417
00:26:51.608                             : en:00:26:51.608
00:43:47.625                             : en:00:43:47.625
00:55:10.806                             : en:00:55:10.806
01:06:08.965                             : en:01:06:08.965
01:13:33.199                             : en:01:13:33.199
01:21:44.899                             : en:01:21:44.899
01:26:26.430                             : en:01:26:26.430




Скриншоты:
[+] Всего файлов в раздаче - 1:
The.Autopsy.of.Jane.Doe.2016.BDRip.1080p.(qqss44).mkv5.58 GB

Текущая раздача:
ДатаКомментарии    РазмерПиры
2017-11-12 U Демон внутри / Вскрытие Джейн Доу / The Autopsy of Jane Doe (2016) BDRip 1080p от New-Team & qqss44 | Лицензия 4 К 5.58 GB ↑ 63 ↓ 36

Показать еще раздачи по запросу демон:
2017-11-13 U Демон внутри / Вскрытие Джейн Доу / The Autopsy of Jane Doe (2016) HDRip от MegaPeer | RUS Transfer | Лицензия 1.46 GB ↑ 80 ↓ 10
2017-11-12 U Демон внутри / Вскрытие Джейн Доу / The Autopsy of Jane Doe (2016) BDRip 720p от HELLYWOOD | RUS-Transfer | Open Matte | Лицензия 1К3.46 GB ↑ 110 ↓ 62
2017-11-12 U Демон внутри / Вскрытие Джейн Доу / The Autopsy of Jane Doe (2016) BDRip 720p от HELLYWOOD | Лицензия 2.91 GB ↑ 113 ↓ 26
2017-11-12 U Демон внутри / Вскрытие Джейн Доу / The Autopsy of Jane Doe (2016) BDRip от MegaPeer | Лицензия 1.45 GB ↑ 70 ↓ 40
2017-11-12 U Демон внутри / Вскрытие Джейн Доу / The Autopsy of Jane Doe (2016) BDRip 1080p от HELLYWOOD | Лицензия 4.37 GB ↑ 72 ↓ 58
2017-11-09 U Демон революции [01-03 из 03] (2017) HDTVRip от Generalfilm | КПК 1.11 GB ↑ 82 ↓ 28
2017-11-09 U Демон революции [01-03 из 03] (2017) WEB-DL 720p 6.69 GB ↑ 56 ↓ 34

Отзывы
kakoshka_16
Спасибо Раздающему Внатуре напряжно давно нормальных ужастников не было

yuss_yuss@mail.ru
Народ!..
В чём оригинальность-то?! Пивом совсем переполнились что ли?.. Грустно...
Это просто - ... в общем!
Оценка - фильму. Может, здесь оставят коммент в пику голливудскому большинству.

laanes
Весьма достойно!

Vik.San
Ужастик на уровне, держит с самого начала.

Зарегистрируйтесь чтобы добавить комментарий.
Обратная связь
Copyleft ©