↑↓Torrent.by
Поиск
Логин: Регистрация
Пароль: Восстановить пароль
Загрузка...

Синяя бездна / Страх глубины / 47 Meters Down (2017) BDRip 1080p от ExKinoRay | Лицензия

Скачать sinyaya-bezdna-strah-glubiny-47-meters-down-2017-bdrip-1080p-ot-exkinoray-licenziya.torrent
U Магнитная ссылка Размер: 12.78 GB Раздают: 111 Качают: 114 Добавлен: 2017-11-12 19:51:48
Синяя бездна / Страх глубины / 47 Meters Down (2017) BDRip 1080p от ExKinoRay | Лицензия

Название: Синяя бездна / Страх глубины
Оригинальное название: 47 Meters Down
Год выхода: 2017
Жанр: Ужасы, триллер, драма
Режиссер: Йоханнес Робертс
В ролях: Мэнди Мур, Клер Холт, Крис Дж. Джонсон, Яни Гельман, Сантьяго Сегура, Мэттью Модайн, Майра Хуарес, Аксель Мансилла

О фильме:
Отдыхая на солнечных пляжах Мексики, Лиза и ее сестра Кейт решаются на погружение в клетке к большим белым акулам. Но зрелищный аттракцион оборачивается кошмаром, когда клетка с двумя девушками срывается на океанское дно. Помощи ждать неоткуда, а кислорода остается лишь на час. Единственный выход из смертельной ловушки — плыть вверх через толщу воды, которая кишит самыми свирепыми хищниками океана.

Страна: Великобритания, США, Доминикана
Студия: Altitude Film Sales, Dimension Films, Dragon Root Securities
Продолжительность: 01:29:16
Перевод: Дублированный | Лицензия

Файл
Качество: BDRip 1080p
Видео: MPEG-4 AVC, 1920x804, 17.7 Mbit/s, 23.976 fps
Звук:
Аудио #01: 48 kHz, DTS, 5.1, 1510 Kbps | Дублированный | RUS |
Аудио #02: 48 kHz, AC3, 5.1, 640 Kbps | Дублированный | RUS |
Аудио #03: 48 kHz, AC3, 5.1, 640 Kbps | Оригинал | ENG |
Субтитры: Русские, английские

Релиз: Автор релиза:


[+] MI
General
Unique ID                   : 182686150105263107577616452766626138894 (0x8970129BE4E1E608BFB713AFD3D2CB0E)
Complete name               : G:VideoSSD47.Meters.Down.2017.BDRip.1080p.ExKinoRay.mkv
Format                      : Matroska
Format version              : Version 4 / Version 2
File size                   : 12.8 GiB
Duration                    : 1 h 29 min
Overall bit rate            : 20.5 Mb/s
Movie name                  : Release by ExKinoRay
Encoded date                : UTC 2017-11-12 08:42:40
Writing application         : mkvmerge v17.0.0 ('Be Ur Friend') 64-bit
Writing library             : libebml v1.3.5 + libmatroska v1.4.8

Video
ID                          : 1
Format                      : AVC
Format/Info                 : Advanced Video Codec
Format profile              : High@L4.1
Format settings             : CABAC / 5 Ref Frames
Format settings, CABAC      : Yes
Format settings, RefFrames  : 5 frames
Codec ID                    : V_MPEG4/ISO/AVC
Duration                    : 1 h 29 min
Bit rate                    : 17.7 Mb/s
Width                       : 1 920 pixels
Height                      : 804 pixels
Display aspect ratio        : 2.40:1
Frame rate mode             : Constant
Frame rate                  : 23.976 (24000/1001) FPS
Color space                 : YUV
Chroma subsampling          : 4:2:0
Bit depth                   : 8 bits
Scan type                   : Progressive
Bits/(Pixel*Frame)          : 0.478
Stream size                 : 11.0 GiB (86%)
Writing library             : x264 core 152 r2851+58 429492e t_mod_Custom [8-bit@all X86_64]
Encoding settings           : cabac=1 / ref=5 / deblock=1:-3:-3 / analyse=0x3:0x133 / me=umh / subme=11 / psy=1 / fade_compensate=0.00 / psy_rd=1.05:0.10 / mixed_ref=1 / me_range=32 / chroma_me=1 / trellis=2 / 8x8dct=1 / cqm=0 / deadzone=21,11 / fast_pskip=0 / chroma_qp_offset=-3 / threads=24 / lookahead_threads=4 / sliced_threads=0 / nr=0 / decimate=1 / interlaced=0 / bluray_compat=0 / constrained_intra=0 / fgo=0 / bframes=9 / b_pyramid=2 / b_adapt=2 / b_bias=0 / direct=3 / weightb=1 / open_gop=0 / weightp=2 / keyint=250 / keyint_min=23 / scenecut=40 / intra_refresh=0 / rc=crf / mbtree=0 / crf=17.5000 / qcomp=0.70 / qpmin=0:0:0 / qpmax=69:69:69 / qpstep=4 / ip_ratio=1.40 / pb_ratio=1.30 / aq=1:0.85 / aq-sensitivity=10.00 / aq-factor=1.00:1.00:1.00 / aq2=0 / aq3=0
Language                    : English
Default                     : Yes
Forced                      : No

Audio #1
ID                          : 2
Format                      : DTS
Format/Info                 : Digital Theater Systems
Mode                        : 16
Format settings, Endianness : Big
Codec ID                    : A_DTS
Duration                    : 1 h 29 min
Bit rate mode               : Constant
Bit rate                    : 1 509 kb/s
Channel(s)                  : 6 channels
Channel positions           : Front: L C R, Side: L R, LFE
Sampling rate               : 48.0 kHz
Frame rate                  : 93.750 FPS (512 SPF)
Bit depth                   : 24 bits
Compression mode            : Lossy
Stream size                 : 964 MiB (7%)
Title                       : Dub [License]
Language                    : Russian
Default                     : Yes
Forced                      : No

Audio #2
ID                          : 3
Format                      : AC-3
Format/Info                 : Audio Coding 3
Format settings, Endianness : Big
Codec ID                    : A_AC3
Duration                    : 1 h 29 min
Bit rate mode               : Constant
Bit rate                    : 640 kb/s
Channel(s)                  : 6 channels
Channel positions           : Front: L C R, Side: L R, LFE
Sampling rate               : 48.0 kHz
Frame rate                  : 31.250 FPS (1536 SPF)
Bit depth                   : 16 bits
Compression mode            : Lossy
Stream size                 : 409 MiB (3%)
Title                       : Dub [License]
Language                    : Russian
Service kind                : Complete Main
Default                     : No
Forced                      : No

Audio #3
ID                          : 4
Format                      : AC-3
Format/Info                 : Audio Coding 3
Format settings, Endianness : Big
Codec ID                    : A_AC3
Duration                    : 1 h 29 min
Bit rate mode               : Constant
Bit rate                    : 640 kb/s
Channel(s)                  : 6 channels
Channel positions           : Front: L C R, Side: L R, LFE
Sampling rate               : 48.0 kHz
Frame rate                  : 31.250 FPS (1536 SPF)
Bit depth                   : 16 bits
Compression mode            : Lossy
Stream size                 : 409 MiB (3%)
Title                       : Original
Language                    : English
Service kind                : Complete Main
Default                     : No
Forced                      : No

Text #1
ID                          : 5
Format                      : UTF-8
Codec ID                    : S_TEXT/UTF8
Codec ID/Info               : UTF-8 Plain Text
Duration                    : 1 h 21 min
Bit rate                    : 68 b/s
Count of elements           : 1002
Stream size                 : 40.6 KiB (0%)
Title                       : Full
Language                    : Russian
Default                     : No
Forced                      : No

Text #2
ID                          : 6
Format                      : UTF-8
Codec ID                    : S_TEXT/UTF8
Codec ID/Info               : UTF-8 Plain Text
Duration                    : 1 h 21 min
Bit rate                    : 56 b/s
Count of elements           : 1021
Stream size                 : 33.6 KiB (0%)
Title                       : SDH
Language                    : English
Default                     : No
Forced                      : No

Menu
00:00:00.000                : en:00:00:00.000
00:06:36.229                : en:00:06:36.229
00:10:12.946                : en:00:10:12.946
00:16:08.467                : en:00:16:08.467
00:20:51.333                : en:00:20:51.333
00:27:36.530                : en:00:27:36.530
00:31:37.771                : en:00:31:37.771
00:36:18.968                : en:00:36:18.968
00:42:00.685                : en:00:42:00.685
00:46:39.005                : en:00:46:39.005
00:52:06.415                : en:00:52:06.415
00:57:23.940                : en:00:57:23.940
01:02:45.553                : en:01:02:45.553
01:07:36.719                : en:01:07:36.719
01:13:12.847                : en:01:13:12.847
01:18:09.935                : en:01:18:09.935



Скриншоты:
[+] Всего файлов в раздаче - 1:
47.Meters.Down.2017.BDRip.1080p.ExKinoRay.mkv12.78 GB

Текущая раздача:
ДатаКомментарии    РазмерПиры
2017-11-12 U Синяя бездна / Страх глубины / 47 Meters Down (2017) BDRip 1080p от ExKinoRay | Лицензия 12.78 GB ↑ 111 ↓ 114

Показать еще раздачи по запросу синяя:
2017-11-13 U Синяя бездна / Страх глубины / 47 Meters Down (2017) BDRip от ExKinoRay | Лицензия 1.46 GB ↑ 309 ↓ 105
2017-11-12 U Синяя бездна / Страх глубины / 47 Meters Down (2017) BDRip от MegaPeer | RUS Transfer | Лицензия 1.47 GB ↑ 82 ↓ 40
2017-11-12 U Синяя бездна / 47 Meters Down (2016) BDRip-AVC от HELLYWOOD | Лицензия 1К1.46 GB ↑ 83 ↓ 80
2017-09-19 U Синяя бездна / Страх глубины / 47 Meters Down (2017) BDRip-AVC от New-Team | iTunes 2.14 GB ↑ 34 ↓ 17
2017-09-18 U Синяя бездна / Страх глубины / 47 Meters Down (2017) BDRip от ExKinoRay | iTunes 1К1.42 GB ↑ 135 ↓ 53
2017-09-17 U Синяя бездна / Страх глубины / 47 Meters Down (2016) BDRip-AVC от OlLanDGroup | iTunes 1К2.59 GB ↑ 66 ↓ 31
2017-09-17 U Синяя бездна / Страх глубины / 47 Meters Down (2017) BDRemux 1080p от ExKinoRay | iTunes 18.73 GB ↑ 60 ↓ 18

Отзывы
Зарегистрируйтесь чтобы добавить комментарий.
Обратная связь
Copyleft ©