↑↓Torrent.by
Поиск
Логин: Регистрация
Пароль: Восстановить пароль
Загрузка...

Телохранитель киллера / The Hitman's Bodyguard (2017) HDRip-AVC от ExKinoRay | D, A | iTunes

Скачать telohranitel-killera-the-hitman-s-bodyguard-2017-hdrip-avc-ot-exkinoray-d-a-itunes.torrent
U Магнитная ссылка Размер: 744.73 MB Раздают: 100 Качают: 29 Добавлен: 2017-11-12 19:52:06
Телохранитель киллера / The Hitman's Bodyguard (2017) HDRip-AVC от ExKinoRay | D, A | iTunes

Название: Телохранитель киллера
Оригинальное название: The Hitman's Bodyguard
Год выпуска: 2017
Жанр:  Боевик, комедия
Выпущено: США, Китай, Болгария, Нидерланды, Campbell Grobman Films, Cristal Pictures, East Light Media, Millennium Films
Режиссер: Патрик Хьюз
В ролях: Райан Рейнольдс, Сэмюэл Л. Джексон, Элоди Юнг, Сальма Хайек, Гэри Олдман, Жоаки де Алмейда, Юрий Колокольников, Тине Жустра, Сэм Хэзелдайн, Ричард Э. Грант, Род Халлетт, Нуртье Херлар, Михаил Горевой, Кирсти Митчелл, Крис Брейзиер, Алан МакКенна, Жозефин де ла Буме, Ори Феффер, Александр Меркюри, Майкл Джинкс, Джастин Пирсон, Оуэн Дэвис

О фильме :
Быть телохранителем непросто, тем более, если ты изначально ненавидишь своего подопечного и ничего кроме смерти ему не желаешь. Главный герой давно служит на месте телохранителя и работает на защиту свидетелей. В этот раз ему не повезло. Он понимает, что не может относиться предвзято к любому, кого нужно защищать, а должен лишь выполнять свое дело. Однако как он ни старается, а в итоге приходится все время испытывать дискомфорт в общении с мерзкими ему людьми, но то, что ему придется защищать убийцу, этого он не мог представить даже в самом страшном сне.

Страна: США, Китай, Болгария, Нидерланды
Студия: Campbell Grobman Films, Cristal Pictures, East Light Media, Millennium Films
Продолжительность: 01:58:17
Перевод: : Дублированный | iTunes + Авторский | Михаил Чадов

Файл
Формат: MKV
Качество: HDRip-AVC
Видео: MPEG-4 AVC, 768x320, ~ 726 Кбит/с
Аудио:  AAC-LC, 2 ch, ~ 76 Кбит/с | iTunes
Аудио:  AAC-LC, 2 ch, ~ 76 Кбит/с | Михаил Чадов

Релиз:


[+] MI
Общее
Уникальный идентификатор : 200671818796648253225196553882276951004 (0x96F7FC8A0D65ACCDA4D32E41775B73DC)
Полное имя : D:MOVIESThe.Hitmans.BodyGuard.2017.ExKinoRay.mkv
Формат : Matroska
Версия формата : Version 4 / Version 2
Размер файла : 745 Мбайт
Продолжительность : 1 ч. 58 м.
Общий поток : 880 Кбит/сек
Дата кодирования : UTC 2017-11-11 16:34:29
Программа кодирования : mkvmerge v15.0.0 ('Duel with the Devil') 64-bit
Библиотека кодирования : libebml v1.3.5 + libmatroska v1.4.5

Видео
Идентификатор : 1
Формат : AVC
Формат/Информация : Advanced Video Codec
Профиль формата : High@L4.1
Параметр CABAC формата : Да
Параметр RefFrames формата : 10 кадров
Идентификатор кодека : V_MPEG4/ISO/AVC
Продолжительность : 1 ч. 58 м.
Битрейт : 726 Кбит/сек
Ширина : 768 пикселей
Высота : 320 пикселей
Соотношение сторон : 2,40:1
Режим частоты кадров : Постоянный
Частота кадров : 23,976 (24000/1001) кадра/сек
Цветовое пространство : YUV
Субдискретизация насыщенности : 4:2:0
Битовая глубина : 8 бит
Тип развёртки : Прогрессивная
Бит/(Пиксели*Кадры) : 0.123
Размер потока : 614 Мбайт (82%)
Библиотека кодирования : x264 core 152 r2851kMod ba24899
Настройки программы : cabac=1 / ref=10 / deblock=1:-3:-2 / analyse=0x3:0x133 / me=umh / subme=11 / psy=1 / fade_compensate=0.00 / psy_rd=1.00:0.10 / mixed_ref=1 / me_range=32 / chroma_me=1 / trellis=2 / 8x8dct=1 / cqm=0 / deadzone=21,11 / fast_pskip=0 / chroma_qp_offset=-3 / threads=6 / lookahead_threads=1 / sliced_threads=0 / nr=0 / decimate=0 / interlaced=0 / bluray_compat=0 / constrained_intra=0 / bframes=10 / b_pyramid=2 / b_adapt=2 / b_bias=0 / direct=3 / weightb=1 / open_gop=0 / weightp=2 / keyint=240 / keyint_min=23 / scenecut=40 / intra_refresh=0 / rc_lookahead=40 / rc=2pass / mbtree=1 / bitrate=726 / ratetol=1.0 / qcomp=0.60 / qpmin=0 / qpmax=69 / qpstep=4 / cplxblur=20.0 / qblur=0.5 / vbv_maxrate=50000 / vbv_bufsize=62500 / nal_hrd=none / filler=0 / ip_ratio=1.40 / aq=3:1.00
Default : Да
Forced : Нет

Аудио #1
Идентификатор : 2
Формат : AAC
Формат/Информация : Advanced Audio Codec
Профиль формата : LC
Идентификатор кодека : A_AAC
Продолжительность : 1 ч. 58 м.
Битрейт : 76,0 Кбит/сек
Каналы : 2 канала
Расположение каналов : Front: L R
Частота : 48,0 КГц
Частота кадров : 46,875 кадров/сек (1024 SPF)
Метод сжатия : С потерями
Задержка видео : 9 мс.
Размер потока : 64,3 Мбайт (9%)
Язык : Russian
Default : Да
Forced : Нет

Аудио #2
Идентификатор : 3
Формат : AAC
Формат/Информация : Advanced Audio Codec
Профиль формата : LC
Идентификатор кодека : A_AAC
Продолжительность : 1 ч. 58 м.
Битрейт : 76,0 Кбит/сек
Каналы : 2 канала
Расположение каналов : Front: L R
Частота : 48,0 КГц
Частота кадров : 46,875 кадров/сек (1024 SPF)
Метод сжатия : С потерями
Задержка видео : 9 мс.
Размер потока : 64,3 Мбайт (9%)
Язык : Russian
Default : Нет
Forced : Нет

Меню
00:00:00.000 : en:00:00:00.000
00:07:22.942 : en:00:07:22.942
00:13:53.875 : en:00:13:53.875
00:20:23.305 : en:00:20:23.305
00:27:20.138 : en:00:27:20.138
00:32:53.513 : en:00:32:53.513
00:38:25.428 : en:00:38:25.428
00:46:52.977 : en:00:46:52.977
00:56:39.354 : en:00:56:39.354
01:00:23.370 : en:01:00:23.370
01:09:11.397 : en:01:09:11.397
01:16:34.381 : en:01:16:34.381
01:21:11.241 : en:01:21:11.241
01:27:45.093 : en:01:27:45.093
01:35:06.743 : en:01:35:06.743
01:40:37.740 : en:01:40:37.740



Скриншоты:
[+] Всего файлов в раздаче - 1:
The.Hitmans.BodyGuard.2017.ExKinoRay.mkv744.73 MB

Текущая раздача:
ДатаКомментарии    РазмерПиры
2017-11-12 U Телохранитель киллера / The Hitman's Bodyguard (2017) HDRip-AVC от ExKinoRay | D, A | iTunes 2 К 744.73 MB ↑ 100 ↓ 29

Показать еще раздачи по запросу телохранитель:
Сегодня U Телохранитель киллера / The Hitman's Bodyguard (2017) BDRip-HEVC 1080p от HEVC CLUB | iTunes 6.61 GB ↑ 64 ↓ 20
2017-11-20 U Телохранитель киллера / The Hitman's Bodyguard (2017) BDRip 1080p от New-Team & qqss44 | iTunes 7.52 GB ↑ 157 ↓ 152
2017-11-20 U Телохранитель киллера / The Hitman's Bodyguard (2017) BDRip 720p от HELLYWOOD | iTunes 1К4.31 GB ↑ 83 ↓ 62
2017-11-20 U Телохранитель киллера / The Hitman's Bodyguard (2017) BDRip-AVC от HELLYWOOD | iTunes 1.41 GB ↑ 51 ↓ 21
2017-11-19 U Телохранитель киллера / The Hitman's Bodyguard (2017) BDRemux 1080p | iTunes 32.60 GB ↑ 151 ↓ 144
2017-11-19 U Телохранитель киллера / The Hitman's Bodyguard (2017) BDRip-AVC от HELLYWOOD | iTunes 2.13 GB ↑ 209 ↓ 100
2017-11-19 U Телохранитель киллера / The Hitman's Bodyguard (2017) BDRip от MegaPeer | iTunes 1.41 GB ↑ 28 ↓ 82

Отзывы
Ex3MaL
Фильм отличный

kirill1
Опять плохие русские...

Зарегистрируйтесь чтобы добавить комментарий.
Обратная связь
Copyleft ©