↑↓Torrent.by
Поиск
Логин: Регистрация
Пароль: Восстановить пароль
Загрузка...

Сука / Bitch (2017) WEBRip 720p | L2

Скачать suka-bitch-2017-webrip-720p-l2.torrent
U Магнитная ссылка Размер: 2.69 GB Раздают: 56 Качают: 34 Добавлен: 2017-11-13 10:05:33
Сука / Bitch (2017) WEBRip 720p | L2

Название: Сука
Оригинальное название: Bitch

Год выхода: 2017
Жанр: Триллер, драма, комедия, семейный
Режиссер: Марианна Пока
В ролях: Кэролайн Аарон, Эрик Эдельштейн, Кингстон Фостер, Рен Ханами, Джейми Кинг, Лииса Ли, Рио Манджини, Джейм Мойер и другие
О фильме:
Провокационная история о женщине, которая не выдержала давления жизни, и стала вести себя как злая собака. Её муж-изменник, которого никогда нет рядом, вынужден сблизиться с их четырьмя детьми и сестрой жены, чтобы сохранить семью во время этого странного кризиса.

Страна: США, Company X, MarVista Entertainment, SpectreVision
Продолжительность: 01:36:59
Перевод: Любительский (двухголосый закадровый) | RecentFilms

Файл
Кодек: MPEG-4 AVC/H.264
Качество: WEBRip 720p
Видео: 1280x530, 23,976 fps, ~3785 Kbps, 0.233 bit/pixel
Звук:
Аудио rus: AC3, 48 kHz, 2 ch, 192 Kbps
Субтитры: отсутствуют

Реклама: присутствует

Семпл

Релиз от: RecentFilms


[+] MediaInfo:

General
Unique ID                                : 245396216622912528874207617288028829090 (0xB89D979953D04209867A323EB39835A2)
Complete name                            : F:FilmsBitch.2017.720p.WEBRip.RecentFilmsBitch.2017.720p.WEBRip.RecentFilms.mkv
Format                                   : Matroska
Format version                           : Version 4 / Version 2
File size                                : 2.69 GiB
Duration                                 : 1h 36mn
Overall bit rate                         : 3 978 Kbps
Encoded date                             : UTC 2017-11-12 12:18:25
Writing application                      : mkvmerge v17.0.0 ('Be Ur Friend') 64-bit
Writing library                          : libebml v1.3.5 + libmatroska v1.4.8

Video
ID                                       : 1
Format                                   : AVC
Format/Info                              : Advanced Video Codec
Format profile                           : High@L3
Format settings, CABAC                   : No
Format settings, ReFrames                : 1 frame
Codec ID                                 : V_MPEG4/ISO/AVC
Duration                                 : 1h 36mn
Bit rate                                 : 3 785 Kbps
Width                                    : 1 280 pixels
Height                                   : 530 pixels
Display aspect ratio                     : 2.40:1
Frame rate mode                          : Constant
Frame rate                               : 23.976 (24000/1001) fps
Original frame rate                      : 23.976 (23976/1000) fps
Color space                              : YUV
Chroma subsampling                       : 4:2:0
Bit depth                                : 8 bits
Scan type                                : Progressive
Bits/(Pixel*Frame)                       : 0.233
Stream size                              : 2.56 GiB (95%)
Writing library                          : x264 core 148 r2665 a01e339
Encoding settings                        : cabac=0 / ref=1 / deblock=1:0:0 / analyse=0x3:0x113 / me=hex / subme=7 / psy=1 / psy_rd=1.00:0.00 / mixed_ref=0 / me_range=16 / chroma_me=1 / trellis=1 / 8x8dct=1 / cqm=0 / deadzone=21,11 / fast_pskip=1 / chroma_qp_offset=-2 / threads=12 / lookahead_threads=2 / sliced_threads=0 / nr=0 / decimate=1 / interlaced=0 / bluray_compat=0 / constrained_intra=0 / bframes=0 / weightp=2 / keyint=250 / keyint_min=23 / scenecut=40 / intra_refresh=0 / rc_lookahead=40 / rc=abr / mbtree=1 / bitrate=3785 / ratetol=1.0 / qcomp=0.60 / qpmin=0 / qpmax=69 / qpstep=4 / ip_ratio=1.40 / aq=1:1.00
Default                                  : Yes
Forced                                   : No

Audio
ID                                       : 2
Format                                   : AC-3
Format/Info                              : Audio Coding 3
Mode extension                           : CM (complete main)
Format settings, Endianness              : Big
Codec ID                                 : A_AC3
Duration                                 : 1h 36mn
Bit rate mode                            : Constant
Bit rate                                 : 192 Kbps
Channel(s)                               : 2 channels
Channel positions                        : Front: L R
Sampling rate                            : 48.0 KHz
Frame rate                               : 31.250 fps (1536 spf)
Compression mode                         : Lossy
Stream size                              : 133 MiB (5%)
Default                                  : Yes
Forced                                   : No




Скриншоты:
[+] Всего файлов в раздаче - 1:
Bitch.2017.720p.WEBRip.RecentFilms.mkv2.69 GB

Текущая раздача:
ДатаКомментарии    РазмерПиры
2017-11-13 U Сука / Bitch (2017) WEBRip 720p | L2 2 К 2.69 GB ↑ 56 ↓ 34

Похожие раздачи по запросу - сука:
2017-11-12 U Сука / Bitch (2017) WEBRip | L2 1.38 GB ↑ 118 ↓ 74

Отзывы
baron791
Семейный? Ну-ну...

polakj
о, младшая Шарбино.. ну посмотримс.)

Зарегистрируйтесь чтобы добавить комментарий.
Обратная связь
Copyleft ©