↑↓Torrent.by
Поиск
Логин: Регистрация
Пароль: Восстановить пароль
Загрузка...

Голос монстра / A Monster Calls (2016) BDRip 1080p от New-Team & qqss44 | Лицензия

Скачать golos-monstra-a-monster-calls-2016-bdrip-1080p-ot-new-team-qqss44-licenziya.torrent
U Магнитная ссылка Размер: 7.60 GB Раздают: 33 Качают: 19 Добавлен: 2017-11-13 13:16:26
Голос монстра / A Monster Calls (2016) BDRip 1080p от New-Team & qqss44 | Лицензия

Анонсы 1080p от qqss44✘  Голос монстра ✘


✦ Год выхода: 2016
✦ Название: Голос монстра
✦ Жанр: Фэнтези, драма
✦ Оригинальное название: A Monster Calls
✦ Режиссер: Хуан Антонио Байона
✦ В ролях: Льюис МакДугалл, Сигурни Уивер, Фелисити Джонс, Тоби Кеббелл, Бен Моор, Джеймс Мелвилл, Оливер Стир, Доминик Бойл, Дженнифер Лим, Макс Габбей

Описание фильма
Поражающая воображение история о мальчике Конноре и монстре из его снов. Когда Коннору особенно тяжело, происходит нечто невероятное — старое тисовое дерево за окном оживает и превращается в громадное чудовище. По ночам монстр рассказывает Коннору истории, которые помогут ему понять, что даже когда весь мир рушится, можно найти в себе силы и не отчаиваться.

✦ Выпущено: США, Испания
✦ Продолжительность: 01:48:26
✦ Перевод: дублированный - || Лицензия ||

Информация о файле
✦ Формат:| MKV | x264 |
✦ Качество: BDRip 1080p
✦ Видео: X264/MPEG4-AVC | 1920x804 (2.40:1) | ~9000 kbps | 23,976 fps
✦ Аудио Rus: AC3 | 48 KHz | 5.1 (Front: L С R Side: L R) + LFE | ~640 kbps
✦ Аудио Eng: AC3 | 48 KHz | 5.1 (Front: L С R Side: L R) + LFE | ~448 kbps
✦ Субтитры: || русские. (полные) || английские. (полные) ||

Релиз от:


[+] ✘ MediaInfo ✘

x264 [info]: frame I:989   Avg QP:13.36  size:219484
x264 [info]: frame P:36641 Avg QP:15.95  size: 77754
x264 [info]: frame B:118348 Avg QP:17.52  size: 35535

Общее
Уникальный идентификатор                 : 185855997066110171942101854240898405170 (0x8BD290216196B9F5AB6DE8325C75D332)
Полное имя                               : X:0000A.Monster.Calls.2016.BDRip.1080p.(qqss44).mkv
Формат                                   : Matroska
Версия формата                           : Version 2
Размер файла                             : 7,60 Гбайт
Продолжительность                        : 1 ч. 48 м.
Общий поток                              : 10,0 Мбит/сек
Название фильма                          : A.Monster.Calls.2016.BDRip.1080p.(qqss44)
Дата кодирования                         : UTC 2017-11-12 09:26:54
Программа кодирования                    : mkvmerge v5.8.0 ('No Sleep / Pillow') built on Sep  2 2012 15:37:04
Библиотека кодирования                   : libebml v1.2.3 + libmatroska v1.3.0

Видео
Идентификатор                            : 1
Формат                                   : AVC
Формат/Информация                        : Advanced Video Codec
Профиль формата                          : High@L4.1
Параметр CABAC формата                   : Да
Параметр ReFrames формата                : 5 кадров
Идентификатор кодека                     : V_MPEG4/ISO/AVC
Продолжительность                        : 1 ч. 48 м.
Битрейт                                  : 8948 Кбит/сек
Ширина                                   : 1920 пикселей
Высота                                   : 804 пикселя
Соотношение сторон                       : 2,40:1
Режим частоты кадров                     : Постоянный
Частота кадров                           : 23,976 (24000/1001) кадра/сек
Цветовое пространство                    : YUV
Субдискретизация насыщенности            : 4:2:0
Битовая глубина                          : 8 бит
Тип развёртки                            : Прогрессивная
Бит/(Пиксели*Кадры)                      : 0.242
Размер потока                            : 6,62 Гбайт (87%)
Заголовок                                : A.Monster.Calls.2016.BDRip.1080p.(qqss44)
Библиотека кодирования                   : x264 core 148 r2744kMod b97ae06
Настройки программы                      : cabac=1 / ref=5 / deblock=1:-3:-3 / analyse=0x3:0x133 / me=umh / subme=11 / psy=1 / fade_compensate=0.00 / psy_rd=1.00:0.00 / mixed_ref=1 / me_range=32 / chroma_me=1 / trellis=2 / 8x8dct=1 / cqm=0 / deadzone=21,11 / fast_pskip=0 / chroma_qp_offset=-2 / threads=12 / lookahead_threads=2 / sliced_threads=0 / nr=0 / decimate=0 / interlaced=0 / bluray_compat=0 / constrained_intra=0 / bframes=8 / b_pyramid=2 / b_adapt=2 / b_bias=0 / direct=3 / weightb=1 / open_gop=0 / weightp=2 / keyint=240 / keyint_min=23 / scenecut=40 / intra_refresh=0 / rc=2pass / mbtree=0 / bitrate=8948 / ratetol=1.0 / qcomp=0.65 / qpmin=0 / qpmax=69 / qpstep=4 / cplxblur=20.0 / qblur=0.5 / ip_ratio=1.40 / pb_ratio=1.30 / aq=3:0.70
Язык                                     : English
Default                                  : Да
Forced                                   : Нет

Аудио #1
Идентификатор                            : 2
Формат                                   : AC-3
Формат/Информация                        : Audio Coding 3
Расширение режима                        : CM (complete main)
Параметр Endianness формата              : Big
Идентификатор кодека                     : A_AC3
Продолжительность                        : 1 ч. 48 м.
Вид битрейта                             : Постоянный
Битрейт                                  : 640 Кбит/сек
Каналы                                   : 6 каналов
Расположение каналов                     : Front: L C R, Side: L R, LFE
Частота                                  : 48,0 КГц
Частота кадров                           : 31,250 кадров/сек (1536 spf)
Метод сжатия                             : С потерями
Размер потока                            : 496 Мбайт (6%)
Язык                                     : Russian
Default                                  : Да
Forced                                   : Нет

Аудио #2
Идентификатор                            : 3
Формат                                   : AC-3
Формат/Информация                        : Audio Coding 3
Расширение режима                        : CM (complete main)
Параметр Endianness формата              : Big
Идентификатор кодека                     : A_AC3
Продолжительность                        : 1 ч. 48 м.
Вид битрейта                             : Постоянный
Битрейт                                  : 448 Кбит/сек
Каналы                                   : 6 каналов
Расположение каналов                     : Front: L C R, Side: L R, LFE
Частота                                  : 48,0 КГц
Частота кадров                           : 31,250 кадров/сек (1536 spf)
Метод сжатия                             : С потерями
Размер потока                            : 347 Мбайт (4%)
Заголовок                                : Original | DD5.1 @ 448 kbps
Язык                                     : English
Default                                  : Нет
Forced                                   : Нет

Текст #1
Идентификатор                            : 4
Формат                                   : UTF-8
Идентификатор кодека                     : S_TEXT/UTF8
Идентификатор кодека/Информация          : UTF-8 Plain Text
Заголовок                                : FULL
Язык                                     : Russian
Default                                  : Нет
Forced                                   : Нет

Текст #2
Идентификатор                            : 5
Формат                                   : UTF-8
Идентификатор кодека                     : S_TEXT/UTF8
Идентификатор кодека/Информация          : UTF-8 Plain Text
Заголовок                                : FULL
Язык                                     : English
Default                                  : Нет
Forced                                   : Нет

Меню
00:00:00.000                             : es:Chapter 01
00:08:12.617                             : es:Chapter 02
00:15:35.517                             : es:Chapter 03
00:24:41.313                             : es:Chapter 04
00:31:50.575                             : es:Chapter 05
00:38:50.619                             : es:Chapter 06
00:50:10.966                             : es:Chapter 07
00:55:48.678                             : es:Chapter 08
01:03:51.369                             : es:Chapter 09
01:13:11.678                             : es:Chapter 10
01:19:19.254                             : es:Chapter 11
01:28:52.285                             : es:Chapter 12
01:40:35.654                             : es:Chapter 13




Скриншоты:
[+] Всего файлов в раздаче - 1:
A.Monster.Calls.2016.BDRip.1080p.(qqss44).mkv7.60 GB

Текущая раздача:
ДатаКомментарии    РазмерПиры
2017-11-13 U Голос монстра / A Monster Calls (2016) BDRip 1080p от New-Team & qqss44 | Лицензия 7.60 GB ↑ 33 ↓ 19

Показать еще раздачи по запросу голос:
2017-11-12 U Голос монстра / A Monster Calls (2016) BDRip-AVC от HELLYWOOD | Лицензия 1.46 GB ↑ 81 ↓ 18
2017-11-12 U Голос монстра / A Monster Calls (2016) BDRip 1080p от ExKinoRay | Лицензия 3К9.13 GB ↑ 91 ↓ 61
2017-11-12 U Голос монстра / A Monster Calls (2016) BDRip 720p от ExKinoRay | Лицензия 1К4.92 GB ↑ 72 ↓ 61
2017-11-12 U Голос монстра / A Monster Calls (2016) BDRip от MegaPeer | Лицензия 3К1.46 GB ↑ 79 ↓ 50
2017-11-04 U Голос [06х01-10] (2017) HDTVRip от GeneralFilm 14.23 GB ↑ 97 ↓ 461
2017-10-28 U Голос [06х01-09] (2017) HDTVRip от GeneralFilm 12.82 GB ↑ 42 ↓ 281
2017-10-20 U Голос [06х01-08] (2017) HDTVRip от GeneralFilm 11.38 GB ↑ 84 ↓ 204

Отзывы
Зарегистрируйтесь чтобы добавить комментарий.
Обратная связь
Copyleft ©