↑↓Torrent.by
Поиск
Логин: Регистрация
Пароль: Восстановить пароль
Загрузка...

Иван Васильевич меняет профессию (1973) BDRip-AVC

Скачать ivan-vasilevich-menyaet-professiyu-1973-bdrip-avc.torrent
U Магнитная ссылка Размер: 1.45 GB Раздают: 62 Качают: 14 Добавлен: 2017-11-13 13:16:44
Иван Васильевич меняет профессию (1973) BDRip-AVC

Название: Иван Васильевич меняет профессию
Год выхода: 1973
Жанр:  комедия
Режиссер: Леонид Гайдай
В ролях: Александр Демьяненко, Юрий Яковлев, Леонид Куравлёв, Наталья Крачковская, Савелий Крамаров, Наталья Селезнёва, Владимир Этуш, Михаил Пуговкин, Сергей Филиппов, Наталья Кустинская

О фильме:
Инженер-изобретатель Тимофеев сконструировал машину времени, которая соединила его квартиру с далеким шестнадцатым веком — точнее, с палатами государя Ивана Грозного. Туда-то и попадают тезка царя пенсионер-общественник Иван Васильевич Бунша и квартирный вор Жорж Милославский. На их место в двадцатом веке «переселяется» великий государь. Поломка машины приводит ко множеству неожиданных и забавных событий...

По мотивам пьесы М.А.Булгакова "Иван Васильевич"

Страна: СССР
Студия: Мосфильм
Продолжительность: 01:31:39
Перевод: русский оригинал

Файл
Кодек: h264
Качество: BDRip-AVC (Исходник Blu-ray disc 1080p)
Видео: High@L4.1, 740х540, ~1816 кбит/с, 23,976 fps
Звук: AC3, 448 кбит/с, 6 ch, 48 КГц
Субтитры: нет


[+] M/I
General
Unique ID                   : 247703684159432722468068544033122768889 (0xBA59FE88339141E85B623A8803D157F9)
Complete name               : F:FILMSИван Васильевич меняет профессию.(1973).BDRIP-AVC.[-=DoMiNo=-].mkv
Format                      : Matroska
Format version              : Version 4 / Version 2
File size                   : 1.45 GiB
Duration                    : 1 h 31 min
Overall bit rate            : 2 268 kb/s
Movie name                  : Иван Васильевич меняет профессию
Deion                 : Инженер-изобретатель Тимофеев сконструировал машину времени, которая соединила его квартиру с далеким шестнадцатым веком - точнее, с палатами государя Ивана Грозного. Туда-то и попадают тезка царя пенсионер-общественник Иван Васильевич Бунша и квартирный вор Жорж Милославский.  /  / На их место в двадцатом веке «переселяется» великий государь. Поломка машины приводит ко множеству неожиданных и забавных событий...
Writing application         : XviD4PSP 7.0.419 DAILY
Writing library             : Lavf57.71.100
ErrorDetectionType          : Per level 1
Attachments                 : poster.jpg
ACTORS                      : Александр Демьяненко, Юрий Яковлев, Леонид Куравлёв, Наталья Крачковская, Савелий Крамаров, Наталья Селезнёва, Владимир Этуш, Михаил Пуговкин, Сергей Филиппов, Наталья Кустинская, Эдуард Бредун, Валентин Грачев, Наталья Гурзо, Иван Жеваго, Юрий Чернов, Лариса Еремина, Анатолий Калабулин, Нина Маслова, Виктор Уральский, Константин Мазанов, Николай Маликов, Юрий Потемкин, Андрей Рабинович, Михаил Содорский, Александр Вигдоров, Анатолий Подшивалов, Виктор Шульгин, Елена Вольская, Леонид Гайдай, Владимир Мышкин, Александр Петров, Виталий Киселёв
COMPOSER                    : Александр Зацепин
COUNTRY                     : СССР
DATE                        : 1973
DIRECTOR                    : Леонид Гайдай
ENCODING_INFO               : BluRay > MKV Произвольный / H264 > X264 VBR-2P 1816kbps Произвольный / AC3 > COPY Безопасное
GENRE                       : фантастика, комедия, приключения
HD_VIDEO                    : 1
IMDB_RATING                 : 8.40
ITUNEXTC                    : ru-movie|12+|200|
Language                    : und
MEDIA_TYPE                  : 9
PRODUCER                    : Аркадий Ашкинази
RATING                      : 8.787
WRITER                      : Владлен Бахнов, Леонид Гайдай, Михаил Булгаков

Video
ID                          : 1
Format                      : AVC
Format/Info                 : Advanced Video Codec
Format profile              : High@L4.1
Format settings             : CABAC / 11 Ref Frames
Format settings, CABAC      : Yes
Format settings, ReFrames   : 11 frames
Codec ID                    : V_MPEG4/ISO/AVC
Duration                    : 1 h 31 min
Bit rate                    : 1 816 kb/s
Width                       : 740 pixels
Height                      : 540 pixels
Display aspect ratio        : 1.370
Frame rate mode             : Constant
Frame rate                  : 23.976 (24000/1001) FPS
Color space                 : YUV
Chroma subsampling          : 4:2:0
Bit depth                   : 8 bits
Scan type                   : Progressive
Bits/(Pixel*Frame)          : 0.190
Stream size                 : 1.14 GiB (78%)
Title                       : RIP_BY_-=DoMiNo=-
Writing library             : x264 core 152 r2851M ba24899
Encoding settings           : cabac=1 / ref=11 / deblock=1:-3:-3 / analyse=0x3:0x133 / me=umh / subme=11 / psy=1 / psy_rd=1.05:0.15 / mixed_ref=1 / me_range=48 / chroma_me=1 / trellis=2 / 8x8dct=1 / cqm=0 / deadzone=21,11 / fast_pskip=0 / chroma_qp_offset=-3 / threads=5 / lookahead_threads=1 / sliced_threads=0 / nr=0 / decimate=1 / interlaced=0 / bluray_compat=0 / constrained_intra=0 / bframes=12 / b_pyramid=2 / b_adapt=2 / b_bias=0 / direct=3 / weightb=1 / open_gop=0 / weightp=2 / keyint=240 / keyint_min=24 / scenecut=40 / intra_refresh=0 / rc_lookahead=60 / rc=2pass / mbtree=1 / bitrate=1816 / ratetol=1.0 / qcomp=0.70 / qpmin=0 / qpmax=69 / qpstep=4 / cplxblur=20.0 / qblur=0.5 / ip_ratio=1.40 / aq=1:1.00
Default                     : Yes
Forced                      : No
Color range                 : Limited
Color primaries             : BT.709
Transfer characteristics    : BT.709
Matrix coefficients         : BT.709

Audio
ID                          : 2
Format                      : AC-3
Format/Info                 : Audio Coding 3
Codec ID                    : A_AC3
Duration                    : 1 h 31 min
Bit rate mode               : Constant
Bit rate                    : 448 kb/s
Channel(s)                  : 6 channels
Channel positions           : Front: L C R, Side: L R, LFE
Sampling rate               : 48.0 kHz
Frame rate                  : 31.250 FPS (1536 SPF)
Bit depth                   : 16 bits
Compression mode            : Lossy
Stream size                 : 294 MiB (20%)
Title                       : AC3_448_KB/S
Language                    : Russian
Service kind                : Complete Main
Default                     : Yes
Forced                      : No

Menu
00:00:00.000                : :Глава 1
00:08:01.689                : :Глава 2
00:12:06.684                : :Глава 3
00:17:05.566                : :Глава 4
00:22:05.699                : :Глава 5
00:27:41.660                : :Глава 6
00:31:35.810                : :Глава 7
00:37:12.313                : :Глава 8
00:46:36.126                : :Глава 9
00:49:43.063                : :Глава 10
00:59:18.638                : :Глава 11
01:06:17.098                : :Глава 12
01:09:48.225                : :Глава 13
01:18:32.624                : :Глава 14
01:23:40.015                : :Глава 15
01:28:22.672                : :Глава 16
01:31:37.825                : :Глава 17



Скриншоты:
[+] Всего файлов в раздаче - 1:
Иван Васильевич меняет профессию.(1973).BDRIP-AVC.[-=DoMiNo=-].mkv1.45 GB

Текущая раздача:
ДатаКомментарии    РазмерПиры
2017-11-13 U Иван Васильевич меняет профессию (1973) BDRip-AVC 1 К 1.45 GB ↑ 62 ↓ 14

Показать еще раздачи по запросу иван:
2017-08-16 U Иван Суббота - Темный Эвери 3. Путь смерти (2017) МР3 421.37 MB ↑ 87 ↓ 4
2017-05-29 U Иван (2016) WEB-DLRip 1080p от MediaClub 3.52 GB ↑ 103 ↓ 12
2017-05-18 U Охлобыстин Иван - Благословляю на праведный бой! Сопротивление мировому злу (2016) FB2 1.26 MB ↑ 212 ↓ 17
2017-05-17 U Охлобыстин Иван - Песни созвездия Гончих Псов (сборник) (2017) FB2 1.29 MB ↑ 275 ↓ 20
2017-05-01 U Иван (2016) WEB-DLRip от GeneralFilm 2К745.05 MB ↑ 460 ↓ 10
2017-05-01 U Иван (2016) WEB-DLRip 720p от MegaPeer 2К1.81 GB ↑ 449 ↓ 2
2017-04-30 U Иван (2016) WEB-DLRip от MegaPeer 3К1.46 GB ↑ 375 ↓ 4

Отзывы
mavlanov_84
Фильмы Гайдая пропагандируют наркотики (алкоголь, никотин), которые унесли уже ни один десяток миллионов жизней русских мужчин.

Зарегистрируйтесь чтобы добавить комментарий.
Обратная связь
Copyleft ©