↑↓Torrent.by
Поиск
Логин: Регистрация
Пароль: Восстановить пароль
Загрузка...

Типа крутые легавые / Hot Fuzz (2007) HDRip-AVC от ExKinoRay | D

Скачать tipa-krutye-legavye-hot-fuzz-2007-hdrip-avc-ot-exkinoray-d.torrent
U Магнитная ссылка Размер: 745.60 MB Раздают: 65 Качают: 13 Добавлен: 2017-11-13 19:39:47
Типа крутые легавые / Hot Fuzz (2007) HDRip-AVC от ExKinoRay | D

Название: Типа крутые легавые
Оригинальное название: Hot Fuzz
Год выхода: 2007
Жанр:  Боевик, комедия, криминал, детектив
Режиссер: Эдгар Райт
В ролях: Саймон Пегг, Мартин Фриман, Билл Найи, Джо Корниш, Эрик Мэйсон, Билли Уайтлоу, Ник Фрост, Питер Уайт

О фильме :
Главный лондонский полицейский, констебль Николас Эйнджел переведен из города в тихий сельский городок Сэндфорд. Он пытается привыкнуть к этой мирной, и на первый взгляд лишенной преступности жизни, а также к туповатому напарнику Дэнни Баттерману. Однако серия ужасных происшествий потрясает городок, заставляя Эйнджела убедиться в том, что Сэндфорд — совсем не такой, каким кажется на первый взгляд. Мечты Дэнни о бурной, взрывоопасной, полной стрельбы и погонями жизни становятся все более и более реальными. Настало время для провинциальных полицейских вершить правосудие больших городов!

Страна: США, Франция, Великобритания
Продолжительность: 02:00:53
Перевод: Профессиональный (полное дублирование)

Файл
Формат: MKV
Качество: HDRip-AVC
Видео: MPEG-4 AVC, 768x328, ~ 785 Кбит/с
Аудио:  AAC-LC, 2 ch, ~ 76 Кбит/с
Субтитры: Русские, английские

Релиз:


[+] MI
Общее
Уникальный идентификатор : 234432157051934583092558814785401859712 (0xB05DFDB9FF9AD5BFACF5DA892F6D2E80)
Полное имя : D:MOVIESHot Fuzz.2007.ExKinoRay.mkv
Формат : Matroska
Версия формата : Version 4 / Version 2
Размер файла : 746 Мбайт
Продолжительность : 2 ч. 0 м.
Общий поток : 862 Кбит/сек
Дата кодирования : UTC 2017-11-12 18:32:27
Программа кодирования : mkvmerge v15.0.0 ('Duel with the Devil') 64-bit
Библиотека кодирования : libebml v1.3.5 + libmatroska v1.4.5

Видео
Идентификатор : 1
Формат : AVC
Формат/Информация : Advanced Video Codec
Профиль формата : High@L4.1
Параметр CABAC формата : Да
Параметр RefFrames формата : 10 кадров
Идентификатор кодека : V_MPEG4/ISO/AVC
Продолжительность : 2 ч. 0 м.
Битрейт : 785 Кбит/сек
Ширина : 768 пикселей
Высота : 328 пикселей
Соотношение сторон : 2,35:1
Режим частоты кадров : Постоянный
Частота кадров : 23,976 (24000/1001) кадра/сек
Цветовое пространство : YUV
Субдискретизация насыщенности : 4:2:0
Битовая глубина : 8 бит
Тип развёртки : Прогрессивная
Бит/(Пиксели*Кадры) : 0.130
Размер потока : 678 Мбайт (91%)
Библиотека кодирования : x264 core 152 r2851kMod ba24899
Настройки программы : cabac=1 / ref=10 / deblock=1:-2:-2 / analyse=0x3:0x133 / me=umh / subme=11 / psy=1 / fade_compensate=0.00 / psy_rd=1.00:0.10 / mixed_ref=1 / me_range=32 / chroma_me=1 / trellis=2 / 8x8dct=1 / cqm=0 / deadzone=21,11 / fast_pskip=0 / chroma_qp_offset=-3 / threads=6 / lookahead_threads=1 / sliced_threads=0 / nr=0 / decimate=0 / interlaced=0 / bluray_compat=0 / constrained_intra=0 / bframes=10 / b_pyramid=2 / b_adapt=2 / b_bias=0 / direct=3 / weightb=1 / open_gop=0 / weightp=2 / keyint=240 / keyint_min=23 / scenecut=40 / intra_refresh=0 / rc_lookahead=40 / rc=2pass / mbtree=1 / bitrate=785 / ratetol=1.0 / qcomp=0.60 / qpmin=0 / qpmax=69 / qpstep=4 / cplxblur=20.0 / qblur=0.5 / vbv_maxrate=50000 / vbv_bufsize=62500 / nal_hrd=none / filler=0 / ip_ratio=1.40 / aq=3:1.00
Default : Да
Forced : Нет

Аудио
Идентификатор : 2
Формат : AAC
Формат/Информация : Advanced Audio Codec
Профиль формата : LC
Идентификатор кодека : A_AAC
Продолжительность : 2 ч. 0 м.
Битрейт : 76,0 Кбит/сек
Каналы : 2 канала
Расположение каналов : Front: L R
Частота : 48,0 КГц
Частота кадров : 46,875 кадров/сек (1024 SPF)
Метод сжатия : С потерями
Задержка видео : 9 мс.
Размер потока : 65,7 Мбайт (9%)
Default : Да
Forced : Нет

Текст #1
Идентификатор : 3
Формат : UTF-8
Идентификатор кодека : S_TEXT/UTF8
Идентификатор кодека/Информация : UTF-8 Plain Text
Продолжительность : 1 ч. 54 м.
Битрейт : 106 бит/сек
ElementCount : 1522
Размер потока : 88,8 Кбайт (0%)
Язык : Russian
Default : Нет
Forced : Нет

Текст #2
Идентификатор : 4
Формат : UTF-8
Идентификатор кодека : S_TEXT/UTF8
Идентификатор кодека/Информация : UTF-8 Plain Text
Продолжительность : 1 ч. 54 м.
Битрейт : 111 бит/сек
ElementCount : 1499
Размер потока : 93,0 Кбайт (0%)
Язык : Russian
Default : Нет
Forced : Нет

Меню
00:00:00.000 : en:Extreme Service
00:02:26.646 : en:Administrative Decision
00:05:23.614 : en:Hard Goodbye
00:07:16.144 : en:Tough Distance
00:12:10.354 : en:Deep Evening
00:14:07.638 : en:Sudden Morning
00:21:39.589 : en:Villiage Force
00:25:48.004 : en:Avian Breakout
00:28:46.683 : en:Maximum Running
00:32:08.843 : en:Speed Duty
00:35:28.000 : en:Sham Dram
00:39:07.970 : en:Double Death
00:42:12.196 : en:Rural Weapon
00:44:56.235 : en:Furious Binge
00:49:26.505 : en:Man Heat
00:54:58.628 : en:Evil Fete
01:01:45.284 : en:Mild Intrigue
01:09:24.618 : en:Smug Suspect
01:16:58.905 : en:Broken Spirit
01:19:15.125 : en:Dark Gathering
01:28:59.542 : en:Deadly Services
01:31:40.453 : en:Avenging Angel
01:41:14.193 : en:Total Bullets
01:45:30.741 : en:Terminal Screech
01:50:49.351 : en:Final Chapter
01:52:02.173 : en:Final Chapter Part II
01:53:54.786 : en:Final Chapter: The Final Chapter
01:55:15.033 : en:The End



Скриншоты:
[+] Всего файлов в раздаче - 1:
Hot Fuzz.2007.ExKinoRay.mkv745.60 MB

Текущая раздача:
ДатаКомментарии    РазмерПиры
2017-11-13 U Типа крутые легавые / Hot Fuzz (2007) HDRip-AVC от ExKinoRay | D 3 К 745.60 MB ↑ 65 ↓ 13

Показать еще раздачи по запросу типа:
2014-11-18 U Типа копы / Let's Be Cops (2014) BDRip 720p от Leonardo and Scarabey | Лицензия 3.77 GB ↑ 157 ↓ 35
2014-11-18 U Типа копы / Let's Be Cops (2014) BDRip 1080p от Leonardo and Scarabey | Лицензия 7.07 GB ↑ 145 ↓ 29
2014-11-16 U Типа копы / Let's Be Cops (2014) BDRip 720p от Hot-Film | Лицензия 3.47 GB ↑ 105 ↓ 70
2014-11-13 U Типа копы / Let's Be Cops (2014) HDRip | iTunes 1К1.37 GB ↑ 255 ↓ 94
2014-10-28 U Типа копы / Let's Be Cops (2014) HDRip | Чистый звук 1.37 GB ↑ 4477 ↓ 2533
2014-10-28 U Типа копы / Let's Be Cops (2014) BDRip-AVC от MediaClub | Чистый звук 1К2.21 GB ↑ 998 ↓ 494
2014-10-28 U Типа копы / Let's Be Cops (2014) BDRip 1080p от Leonardo and Scarabey | Чистый звук 6.89 GB ↑ 260 ↓ 520

Отзывы
riomar
даааа! крутой фильм !

alicoco1
Фильм класс! С удовольствием пересмотрю. Спасибо!

SergeiViking1
Отличный фильм

Зарегистрируйтесь чтобы добавить комментарий.
Обратная связь
Copyleft ©