↑↓Torrent.by
Поиск
Логин: Регистрация
Пароль: Восстановить пароль
Загрузка...

Доктор Рихтер [01x01-02] (2016) WEBRip 720p

Скачать doktor-rihter-01x01-02-2016-webrip-720p.torrent
U Магнитная ссылка Размер: 3.19 GB Раздают: 47 Качают: 16 Добавлен: 2017-11-14 09:44:49
Доктор Рихтер [01x01-02] (2016) WEBRip 720p

Название: Доктор Рихтер
Год выхода: 2016
Жанр: Драма, детектив
Режиссер: Андрей Прошкин, Илья Казанков
В ролях: Алексей Серебряков, Дмитрий Ендальцев, Полина Чернышева, Павел Чинарев, Анна Михалкова и др.

О фильме:
Городская клиническая больница № 100. Заведующий лечебно-диагностическим отделением Андрей Александрович Рихтер вместе с командой расследует сложные медицинские случаи, с которыми не справились другие врачи. Рихтер – гений своего дела. Правда интересуют его только самые сложные и запутанные случаи – медицинские головоломки. А рутинная работа в больничной поликлинике навевает скуку и раздражает. Из-за «особенностей» характера Рихтер не является любимцем коллег и пациентов: Андрей Александрович замкнут, резок и циничен, склонен к бунтарству. Он не обременяет себя соблюдением правил хорошего тона, и временами кажется, что сочувствие и сострадание ему вовсе чуждо, что, однако, неверно.


Страна: Россия
Студия: ВГТРК
Продолжительность: ~00:52:00
Перевод: Не требуется

Файл
Кодек: AVC
Качество: WEBRip 720p
Видео: 1280x720, ~4000 Кбит/с, 25,000 к/c
Звук: AC3, 2.0, 48 kHz, 128 kbps


[+] MI
General
Complete name                            : s01x01.mp4
Format                                   : MPEG-4
Format profile                           : Base Media / Version 2
Codec ID                                 : mp42
File size                                : 1.59 GiB
Duration                                 : 51mn 17s
Overall bit rate mode                    : Variable
Overall bit rate                         : 4 439 Kbps
Encoded date                             : UTC 2017-11-13 17:50:05
Tagged date                              : UTC 2017-11-13 17:50:33
©TIM                                     : 00:00:00:00
©TSC                                     : 25
©TSZ                                     : 1

Video
ID                                       : 1
Format                                   : AVC
Format/Info                              : Advanced Video Codec
Format profile                           : Main@L4.1
Format settings, CABAC                   : Yes
Format settings, ReFrames                : 3 frames
Codec ID                                 : avc1
Codec ID/Info                            : Advanced Video Coding
Duration                                 : 51mn 17s
Bit rate                                 : 4 310 Kbps
Width                                    : 1 280 pixels
Height                                   : 720 pixels
Display aspect ratio                     : 16:9
Frame rate mode                          : Constant
Frame rate                               : 25.000 fps
Standard                                 : PAL
Color space                              : YUV
Chroma subsampling                       : 4:2:0
Bit depth                                : 8 bits
Scan type                                : Progressive
Bits/(Pixel*Frame)                       : 0.187
Stream size                              : 1.54 GiB (97%)
Language                                 : English
Encoded date                             : UTC 2017-11-13 17:50:06
Tagged date                              : UTC 2017-11-13 17:50:06
Color primaries                          : BT.709
Transfer characteristics                 : BT.709
Matrix coefficients                      : BT.709

Audio
ID                                       : 2
Format                                   : AAC
Format/Info                              : Advanced Audio Codec
Format profile                           : LC
Codec ID                                 : 40
Duration                                 : 51mn 17s
Source duration                          : 51mn 17s
Bit rate mode                            : Variable
Bit rate                                 : 125 Kbps
Maximum bit rate                         : 207 Kbps
Channel(s)                               : 2 channels
Channel positions                        : Front: L R
Sampling rate                            : 48.0 KHz
Compression mode                         : Lossy
Stream size                              : 46.0 MiB (3%)
Source stream size                       : 46.0 MiB (3%)
Language                                 : English
Encoded date                             : UTC 2017-11-13 17:50:06
Tagged date                              : UTC 2017-11-13 17:50:06




Скриншоты:
[+] Всего файлов в раздаче - 2:
s01x02.mp41.60 GB
s01x01.mp41.59 GB

Текущая раздача:
ДатаКомментарии    РазмерПиры
2017-11-14 U Доктор Рихтер [01x01-02] (2016) WEBRip 720p 3.19 GB ↑ 47 ↓ 16

Показать еще раздачи по запросу доктор:
Вчера U Доктор Рихтер [01х01-10 из 21] (2017) SATRip-AVC 6.13 GB ↑ 0 ↓ 1
2017-11-18 U Доктор Рихтер [01х01-08 из 21] (2017) HDTVRip 720p от MediaClub 10.64 GB ↑ 60 ↓ 91
2017-11-17 U Доктор Рихтер [01-08 из 21] (2017) HDTVRip-AVC от Files-x 6.35 GB ↑ 75 ↓ 126
2017-11-17 U Хороший доктор / The Good Doctor [01x01-07 из 18] (2017) WEB-DLRip от Skreech | NewStudio 3.69 GB ↑ 81 ↓ 49
2017-11-17 U Доктор Рихтер [01-08 из 21] (2017) HDTVRip от Files-x 5.07 GB ↑ 105 ↓ 201
2017-11-16 U Доктор Рихтер [01x01-06] (2016) WEBRip 720p 9.44 GB ↑ 46 ↓ 70
2017-11-16 U Доктор Рихтер [01х01-04 из 21] (2017) HDTVRip 720p от MediaClub 5.28 GB ↑ 44 ↓ 29

Отзывы
Зарегистрируйтесь чтобы добавить комментарий.
Обратная связь
Copyleft ©