↑↓Torrent.by
Поиск
Логин: Регистрация
Пароль: Восстановить пароль
Загрузка...

Теория большого взрыва / The Big Bang Theory [11x01-07 из 24] (2017) HDTVRip 720p | Кураж-Бамбей

Скачать teoriya-bolshogo-vzryva-the-big-bang-theory-11x01-07-iz-24-2017-hdtvrip-720p-kurazh-bambey.torrent
U Магнитная ссылка Размер: 3.80 GB Раздают: 42 Качают: 199 Добавлен: 2017-11-14 09:45:16
Теория большого взрыва / The Big Bang Theory [11x01-07 из 24] (2017) HDTVRip 720p | Кураж-Бамбей

Название: Теория большого взрыва
Оригинальное название: The Big Bang Theory
Год выхода: 2017
Жанр: Ситком, комедия

Режиссер: Марк Сендроуски, Питер Чакос, Энтони Джозеф Рич

В ролях: Джонни Галэки, Джим Парсонс, Кейли Куоко, Саймон Хелберг, Кунал Найяр, Майем Биалик, Мелисса Рауш, Кэрол Энн Сьюзи, Кевин Суссман, Арти Манн, Брайан Джордж, Элис Эмтер, Сара Гилберт, Джон Росс Боуи, Уил Уитон, Лори Меткаф, Верни Уотсон-Джонсон, Кристин Барански, Джошуа Малина, Кейси Сэндер, Кэти Леклерк

О фильме:
Два блестящих физика, Леонард и Шелдон, «великие умы», которые понимают, как «работает Вселенная». Но их гениальность ничуть не помогает им общаться с людьми, особенно с женщинами. Всё начинает меняться, когда напротив них поселяется красавица Пенни.
Когда Леонард и Шелдон встречают Пенни, Леонард сразу же начинает интересоваться ею. Он видит в общении с Пенни огромную перспективу, вплоть до любви, однако Шелдон понимает, что мечтам его друга не суждено сбыться.
Стоит также отметить пару странных друзей этих физиков: Воловиц, который любит употреблять фразы на разных языках, включая русский, и Раджеш Кутрапали, теряющий дар речи при виде женщин.

Страна: США
Продолжительность серии: ~ 00:21:00
Перевод: Профессиональный (одноголосый закадровый) | Кураж-Бамбей

Файл
Кодек: x.264
Качество: HDTVRip 720p
Видео: AVC, 1280x720 (16:9), 23.976 fps, 2 886 Kbps
Звук 1:  AC-3, 48.0 KHz, 2 ch, 192 Kbps, CBR (Russian)
Звук 2:  AC-3, 48.0 KHz, 6 ch, 384 Kbps, CBR (English)
Субтитры: Русские, английские

Рекламы нет

14.11.17 Добавлена 7я серия


[+] MI
General
Unique ID                   : 179544920684248781986917024713377986747 (0x8713180A8A7DAD1FB6E699EF006E38BB)
Complete name               : The.Big.Bang.Theory.S11E04.HDTVRip.720p.KB.mkv
Format                      : Matroska
Format version              : Version 4 / Version 2
File size                   : 520 MiB
Duration                    : 20 min 59 s
Overall bit rate            : 3 465 kb/s
Encoded date                : UTC 2017-10-21 20:34:53
Writing application         : mkvmerge v17.0.0 ('Be Ur Friend') 32-bit
Writing library             : libebml v1.3.5 + libmatroska v1.4.8

Video
ID                          : 1
Format                      : AVC
Format/Info                 : Advanced Video Codec
Format profile              : High@L4.1
Format settings, CABAC      : Yes
Format settings, RefFrames  : 8 frames
Codec ID                    : V_MPEG4/ISO/AVC
Duration                    : 20 min 59 s
Bit rate                    : 2 886 kb/s
Width                       : 1 280 pixels
Height                      : 720 pixels
Display aspect ratio        : 16:9
Frame rate mode             : Constant
Frame rate                  : 23.976 (24000/1001) FPS
Color space                 : YUV
Chroma subsampling          : 4:2:0
Bit depth                   : 8 bits
Scan type                   : Progressive
Bits/(Pixel*Frame)          : 0.131
Stream size                 : 433 MiB (83%)
Writing library             : x264 core 152 r2851 ba24899
Encoding settings           : cabac=1 / ref=8 / deblock=1:-2:-2 / analyse=0x3:0x113 / me=umh / subme=9 / psy=1 / psy_rd=1.00:0.00 / mixed_ref=1 / me_range=24 / chroma_me=1 / trellis=2 / 8x8dct=1 / cqm=0 / deadzone=21,11 / fast_pskip=0 / chroma_qp_offset=-2 / threads=12 / lookahead_threads=1 / sliced_threads=0 / nr=0 / decimate=1 / interlaced=0 / bluray_compat=0 / constrained_intra=0 / bframes=5 / b_pyramid=2 / b_adapt=1 / b_bias=0 / direct=3 / weightb=1 / open_gop=0 / weightp=2 / keyint=250 / keyint_min=23 / scenecut=40 / intra_refresh=0 / rc_lookahead=50 / rc=crf / mbtree=1 / crf=18.0 / qcomp=0.60 / qpmin=0 / qpmax=69 / qpstep=4 / ip_ratio=1.40 / aq=1:1.00
Language                    : English
Default                     : Yes
Forced                      : No

Audio #1
ID                          : 2
Format                      : AC-3
Format/Info                 : Audio Coding 3
Format settings, Endianness : Big
Codec ID                    : A_AC3
Duration                    : 20 min 59 s
Bit rate mode               : Constant
Bit rate                    : 192 kb/s
Channel(s)                  : 2 channels
Channel positions           : Front: L R
Sampling rate               : 48.0 kHz
Frame rate                  : 31.250 FPS (1536 SPF)
Bit depth                   : 16 bits
Compression mode            : Lossy
Stream size                 : 28.8 MiB (6%)
Language                    : Russian
Service kind                : Complete Main
Default                     : Yes
Forced                      : No

Audio #2
ID                          : 3
Format                      : AC-3
Format/Info                 : Audio Coding 3
Format settings, Endianness : Big
Codec ID                    : A_AC3
Duration                    : 20 min 59 s
Bit rate mode               : Constant
Bit rate                    : 384 kb/s
Channel(s)                  : 6 channels
Channel positions           : Front: L C R, Side: L R, LFE
Sampling rate               : 48.0 kHz
Frame rate                  : 31.250 FPS (1536 SPF)
Bit depth                   : 16 bits
Compression mode            : Lossy
Stream size                 : 57.6 MiB (11%)
Language                    : English
Service kind                : Complete Main
Default                     : No
Forced                      : No

Text #1
ID                          : 4
Format                      : UTF-8
Codec ID                    : S_TEXT/UTF8
Codec ID/Info               : UTF-8 Plain Text
Duration                    : 20 min 24 s
Bit rate                    : 151 b/s
Count of elements           : 426
Stream size                 : 22.7 KiB (0%)
Language                    : Russian
Default                     : No
Forced                      : No

Text #2
ID                          : 5
Format                      : UTF-8
Codec ID                    : S_TEXT/UTF8
Codec ID/Info               : UTF-8 Plain Text
Duration                    : 20 min 24 s
Bit rate                    : 94 b/s
Count of elements           : 442
Stream size                 : 14.1 KiB (0%)
Language                    : English
Default                     : No
Forced                      : No



Скриншоты:
[+] Всего файлов в раздаче - 7:
The.Big.Bang.Theory.S11E01.HDTVRip.720p.KB.mkv547.78 MB
The.Big.Bang.Theory.S11E02.HDTVRip.720p.KB.mkv564.66 MB
The.Big.Bang.Theory.S11E03.HDTVRip.720p.KB.mkv526.54 MB
The.Big.Bang.Theory.S11E04.HDTVRip.720p.KB.mkv520.02 MB
The.Big.Bang.Theory.S11E05.HDTVRip.720p.KB.mkv492.96 MB
The.Big.Bang.Theory.S11E06.HDTVRip.720p.KB.mkv528.76 MB
The.Big.Bang.Theory.S11E07.HDTVRip.720p.KB.mkv711.55 MB

Текущая раздача:
ДатаКомментарии    РазмерПиры
2017-11-14 U Теория большого взрыва / The Big Bang Theory [11x01-07 из 24] (2017) HDTVRip 720p | Кураж-Бамбей 3.80 GB ↑ 42 ↓ 199

Показать еще раздачи по запросу теория:
2017-11-15 U Теория большого взрыва / The Big Bang Theory [11x01-07 из 24] (2017) HDTVRip | Кураж-Бамбей 1.71 GB ↑ 43 ↓ 80
2017-11-14 U Теория большого взрыва / The Big Bang Theory [11x01-07 из 24] (2017) HDTVRip 1080p | Кураж-Бамбей 10.74 GB ↑ 103 ↓ 378
2017-11-09 U Айван Пастин, Тувана Пастин, Том Хамберстоун - Теория игр в комиксах (2017) PDF 13.24 MB ↑ 59 ↓ 5
2017-11-07 U Теория большого взрыва / The Big Bang Theory [11x01-06 из 24] (2017) HDTVRip | Кураж-Бамбей 1.47 GB ↑ 121 ↓ 379
2017-10-28 U Теория большого взрыва / The Big Bang Theory [11x01-05 из 24] (2017) HDTVRip | Кураж-Бамбей 1.22 GB ↑ 93 ↓ 197
2017-10-28 U Теория большого взрыва / The Big Bang Theory [11x01-05 из 24] (2017) HDTVRip 1080p | Кураж-Бамбей 8.03 GB ↑ 75 ↓ 472
2017-10-28 U Теория большого взрыва / The Big Bang Theory [11x01-05 из 24] (2017) HDTVRip 720p | Кураж-Бамбей 2.59 GB ↑ 85 ↓ 421

Отзывы
Зарегистрируйтесь чтобы добавить комментарий.
Обратная связь
Copyleft ©