↑↓Torrent.by
Поиск
Логин: Регистрация
Пароль: Восстановить пароль
Загрузка...

Ветреная река / Wind River (2017) BDRip-AVC от New-Team | iTunes

Скачать vetrenaya-reka-wind-river-2017-bdrip-avc-ot-new-team-itunes.torrent
U Магнитная ссылка Размер: 1.46 GB Раздают: 65 Качают: 22 Добавлен: 2017-11-14 18:49:26
Ветреная река / Wind River (2017) BDRip-AVC от New-Team | iTunes

Ветреная река
Wind River

«Нет ничего сложнее, чем выйти на след правды»

Страна: Великобритания, Канада, США
Жанр:  боевик, триллер, криминал, детектив
Год выпуска: 2017
Продолжительность: 01:46:47

Перевод: Профессиональный (полное дублирование) [iTunes]
Субтитры: русские (полные)
Оригинальная аудиодорожка: нет

Режиссер: Тейлор Шеридан / Taylor Sheridan

В ролях: Джереми Реннер, Элизабет Олсен, Джон Бернтал, Келси Эсбиль, Джулия Джонс, Тео Брионес, Апесанахкват, Грэм Грин, Танту Кардинал, Эрик Ланж, Джил Бирмингем, Алтея Сэм

Описание:
В пустыне на территории индейской резервации «Ветреная река» егерь Кори Ламберт находит изувеченное тело молодой девушки. Опытный охотник с трагическим прошлым, он берется помочь в расследовании этого дела агенту ФБР Джейн Бэннер, которая оказывается в мире, полном загадок и насилия. Но смогут ли они противостоять зловещим силам этих мест, где сама природа пропитана горечью и жаждой мщения?..

Релиз:

Автор рипа: stalkerok

Семпл

Качество видео: BDRip-AVC [Wind River (2017) Blu-ray Disc -BLUEBIRD]
Формат видео: MKV
Видео кодек: AVC
Аудио кодек: AC3
Видео: 1576 Кбит/сек, 1046*438 (2,40:1), в 23,976 (24000/1001) кадра/сек, AVC
Аудио: русский, 384 Кбит/сек, 48 КГц, 5.1, AC3
Навигация по главам: есть


[+] x264/MediaInfo


x264 [info]: frame I:1113  Avg QP:18.25  size: 50258
x264 [info]: frame P:30019 Avg QP:19.79  size: 17190
x264 [info]: frame B:122485 Avg QP:21.82  size:  5637

Общее
Уникальный идентификатор                 : 197952591725268559862117295554679717894 (0x94EC484B30170B7495D145399482C006)
Полное имя                               : M:!Rips2017Wind River (2017)Wind.River.2017.BDRip-AVC.RUS.stalkerok.new-team.mkv
Формат                                   : Matroska
Версия формата                           : Version 4 / Version 2
Размер файла                             : 1,46 Гбайт
Продолжительность                        : 1 ч. 46 м.
Общий поток                              : 1962 Кбит/сек
Название фильма                          : Wind River (2017) (Rip by stalkerok)
Дата кодирования                         : UTC 2017-11-13 15:03:50
Программа кодирования                    : mkvmerge v8.6.1 ('Flying') 64bit
Библиотека кодирования                   : libebml v1.3.3 + libmatroska v1.4.4

Видео
Идентификатор                            : 1
Формат                                   : AVC
Формат/Информация                        : Advanced Video Codec
Профиль формата                          : High@L4.1
Параметр CABAC формата                   : Да
Параметр ReFrames формата                : 14 кадров
Идентификатор кодека                     : V_MPEG4/ISO/AVC
Продолжительность                        : 1 ч. 46 м.
Битрейт                                  : 1576 Кбит/сек
Ширина                                   : 1046 пикселей
Высота                                   : 438 пикселей
Соотношение сторон                       : 2,40:1
Режим частоты кадров                     : Постоянный
Частота кадров                           : 23,976 (24000/1001) кадра/сек
Цветовое пространство                    : YUV
Субдискретизация насыщенности            : 4:2:0
Битовая глубина                          : 8 бит
Тип развёртки                            : Прогрессивная
Бит/(Пиксели*Кадры)                      : 0.143
Размер потока                            : 1,18 Гбайт (80%)
Заголовок                                : Wind River (2017) (Rip by stalkerok)
Библиотека кодирования                   : x264 core 152 r2851kMod ba24899
Настройки программы                      : cabac=1 / ref=14 / deblock=1:-3:-2 / analyse=0x3:0x133 / me=umh / subme=11 / psy=1 / fade_compensate=0.00 / psy_rd=1.00:0.00 / mixed_ref=1 / me_range=32 / chroma_me=1 / trellis=2 / 8x8dct=1 / cqm=0 / deadzone=21,11 / fast_pskip=0 / chroma_qp_offset=-2 / threads=12 / lookahead_threads=3 / sliced_threads=0 / nr=0 / decimate=1 / interlaced=0 / bluray_compat=0 / constrained_intra=0 / bframes=14 / b_pyramid=2 / b_adapt=2 / b_bias=0 / direct=3 / weightb=1 / open_gop=0 / weightp=2 / keyint=240 / keyint_min=23 / scenecut=40 / intra_refresh=0 / rc_lookahead=60 / rc=crf / mbtree=0 / crf=19.6500 / qcomp=0.65 / qpmin=0 / qpmax=69 / qpstep=4 / vbv_maxrate=50000 / vbv_bufsize=62500 / crf_max=0.0 / nal_hrd=none / filler=0 / ip_ratio=1.40 / pb_ratio=1.30 / aq=3:0.80 / zones=144063,153616,q=35
Default                                  : Да
Forced                                   : Нет

Аудио
Идентификатор                            : 2
Формат                                   : AC-3
Формат/Информация                        : Audio Coding 3
Расширение режима                        : CM (complete main)
Параметр Endianness формата              : Big
Идентификатор кодека                     : A_AC3
Продолжительность                        : 1 ч. 46 м.
Вид битрейта                             : Постоянный
Битрейт                                  : 384 Кбит/сек
Каналы                                   : 6 каналов
Расположение каналов                     : Front: L C R, Side: L R, LFE
Частота                                  : 48,0 КГц
Частота кадров                           : 31,250 кадров/сек (1536 spf)
Метод сжатия                             : С потерями
Размер потока                            : 293 Мбайт (20%)
Язык                                     : Russian
Default                                  : Да
Forced                                   : Нет

Текст
Идентификатор                            : 3
Формат                                   : UTF-8
Идентификатор кодека                     : S_TEXT/UTF8
Идентификатор кодека/Информация          : UTF-8 Plain Text
Продолжительность                        : 1 ч. 43 м.
Битрейт                                  : 89 бит/сек
Count of elements                        : 1251
Размер потока                            : 67,4 Кбайт (0%)
Язык                                     : Russian
Default                                  : Нет
Forced                                   : Нет

Меню
00:00:00.000                             : en:Chapter 1
00:06:01.694                             : en:Chapter 2
00:10:42.433                             : en:Chapter 3
00:14:55.394                             : en:Chapter 4
00:19:18.740                             : en:Chapter 5
00:25:52.342                             : en:Chapter 6
00:32:02.921                             : en:Chapter 7
00:37:13.481                             : en:Chapter 8
00:43:34.527                             : en:Chapter 9
00:52:17.259                             : en:Chapter 10
01:00:22.535                             : en:Chapter 11
01:07:09.483                             : en:Chapter 12
01:10:57.920                             : en:Chapter 13
01:18:39.589                             : en:Chapter 14
01:23:46.104                             : en:Chapter 15
01:31:00.537                             : en:Chapter 16
01:36:46.591                             : en:Chapter 17
01:39:41.642                             : en:Chapter 18




Скриншоты:
[+] Всего файлов в раздаче - 1:
Wind.River.2017.BDRip-AVC.RUS.stalkerok.new-team.mkv1.46 GB

Текущая раздача:
ДатаКомментарии    РазмерПиры
2017-11-14 U Ветреная река / Wind River (2017) BDRip-AVC от New-Team | iTunes 1 К 1.46 GB ↑ 65 ↓ 22

Показать еще раздачи по запросу ветреная:
2017-11-10 U Ветреная река / Wind River (2017) BDRip 1080p от New-Team & qqss44 | iTunes 1К7.55 GB ↑ 57 ↓ 17
2017-11-08 U Ветреная река / Wind River (2017) BDRip-AVC от HELLYWOOD | iTunes 1К2.13 GB ↑ 49 ↓ 33
2017-11-08 U Ветреная река / Wind River (2017) BDRip 720p от HELLYWOOD | iTunes 4.31 GB ↑ 74 ↓ 31
2017-11-07 U Ветреная река / Wind River (2017) BDRip от MegaPeer | iTunes 1.41 GB ↑ 185 ↓ 58
2017-11-06 U Ветреная река / Wind River (2017) HDRip-AVC от ExKinoRay | iTunes 2.05 GB ↑ 52 ↓ 16
2017-11-05 U Ветреная река / Wind River (2017) HDRip от Scarabey | iTunes 1.40 GB ↑ 27 ↓ 107
2017-11-05 U Ветреная река / Wind River (2017) HDRip от MegaPeer | iTunes 745.15 MB ↑ 52 ↓ 12

Отзывы
hpilipp
Вполне обычный фильм, зря его так пиарили, теперь начинает казаться, что что-то недодали. Триллер. Бытовуха. Приятные зимние пейзажи.

Зарегистрируйтесь чтобы добавить комментарий.
Обратная связь
Copyleft ©