↑↓Torrent.by
Поиск
Логин: Регистрация
Пароль: Восстановить пароль
Загрузка...

Каратель / The Punisher [S01] (2017) WEBRip | L

Скачать karatel-the-punisher-s01-2017-webrip-l.torrent
U Магнитная ссылка Размер: 7.93 GB Раздают: 335 Качают: 681 Добавлен: 2017-11-18 12:15:53
Каратель / The Punisher [S01] (2017) WEBRip | L

Каратель / The Punisher

Страна: США
Производство: Walt Disney Television, NetFlix, Marvel Entertainment, ABC Studios
Год выпуска: 2017
Сезон: 1
Жанр:  фантастика, боевик, триллер, драма, криминал, приключения
Продолжительность: 13х ~00:52:00

Режиссеры: Энди Годдард, Марк Йобст, Кари Скогланд
Авторы сценария: Стив Лайтфут, Майкл Джонс-Моралес, Джерри Конуэй

В ролях: Бен Барнс, Джон Бернтал, Джейсон Р. Мур, Эбон Мосс-Бакрак, Майкл Натансон, Джейми Рэй Ньюман, Эмбер Роуз Рева, Пол Шульц

Описание: После того, как семья Фрэнка Касла была убита во время перестрелки нескольких банд Нью-Йорка, он решает отомстить и начинает охоту на преступников города. В преступном мире он становится известен как Каратель...

Перевод: Любительский (многоголосый, закадровый) | КОЛДФИЛЬМ
Субтитры: нет

Качество: WEBRip
Формат: АVI
Видео кодек: XviD
Аудио кодек: МР3
Видео: 720x400 (16:9), 23.976 fps, XviD ~1 400 kbps avg
Аудио: 44.1 kHz, MPEG Layer 3, 2 ch, ~192 kbps avg

Дата премьеры (мир): 6 ноября 2017

Трейлер


[+] Media Info
General
Complete name                  : The PunisherThe_Punisher_S01E01.avi
Format                         : AVI
Format/Info                    : Audio Video Interleave
File size                      : 602 MiB
Duration                       : 51mn 45s
Overall bit rate               : 1 626 Kbps
Writing application            : Lavf57.40.101

Video
ID                             : 1
Format                         : MPEG-4 Visual
Format settings, BVOP          : No
Format settings, QPel          : No
Format settings, GMC           : No warppoints
Format settings, Matrix        : Default (H.263)
Codec ID                       : FMP4
Duration                       : 51mn 44s
Bit rate                       : 1 403 Kbps
Width                          : 720 pixels
Height                         : 400 pixels
Display aspect ratio           : 16:9
Frame rate mode                : Variable
Frame rate                     : 119.880 (24/30) fps
Minimum frame rate             : 23.976 fps
Maximum frame rate             : 29.970 fps
Color space                    : YUV
Chroma subsampling             : 4:2:0
Bit depth                      : 8 bits
Scan type                      : Progressive
Compression mode               : Lossy
Bits/(Pixel*Frame)             : 0.041
Stream size                    : 519 MiB (86%)
Writing library                : Lavc57.48.101

Audio
ID                             : 0
Format                         : MPEG Audio
Format version                 : Version 1
Format profile                 : Layer 3
Mode                           : Joint stereo
Mode extension                 : MS Stereo
Codec ID                       : 55
Codec ID/Hint                  : MP3
Duration                       : 51mn 45s
Bit rate mode                  : Constant
Bit rate                       : 192 Kbps
Channel(s)                     : 2 channels
Sampling rate                  : 44.1 KHz
Compression mode               : Lossy
Stream size                    : 71.1 MiB (12%)
Alignment                      : Aligned on interleaves
Interleave, duration           : 8 ms (1.00 video frame)



Скриншоты:
[+] Всего файлов в раздаче - 13:
The_Punisher_S01E01.avi601.82 MB
The_Punisher_S01E02.avi665.29 MB
The_Punisher_S01E03.avi678.09 MB
The_Punisher_S01E04.avi587.86 MB
The_Punisher_S01E05.avi637.36 MB
The_Punisher_S01E06.avi640.69 MB
The_Punisher_S01E07.avi561.16 MB
The_Punisher_S01E08.avi647.11 MB
The_Punisher_S01E09.avi651.22 MB
The_Punisher_S01E10.avi600.51 MB
The_Punisher_S01E11.avi567.00 MB
The_Punisher_S01E12.avi621.71 MB
The_Punisher_S01E13.avi662.90 MB

Текущая раздача:
ДатаКомментарии    РазмерПиры
2017-11-18 U Каратель / The Punisher [S01] (2017) WEBRip | L 7.93 GB ↑ 335 ↓ 681

Показать еще раздачи по запросу каратель:
Вчера U Каратель / The Punisher [S01] (2017) WEBRip-AVC | NewStudio 14.08 GB ↑ 39 ↓ 38
2017-12-12 U Каратель / The Punisher [S01] (2017) WEBRip от Generalfilm | КПК | NewStudio 2.56 GB ↑ 49 ↓ 31
2017-11-30 U Каратель / The Punisher [S01] (2017) WEBRip | Jaskier 7.87 GB ↑ 70 ↓ 59
2017-11-30 U Каратель / The Punisher [S01] (2017) WEB-DLRip | Profix Media 5.68 GB ↑ 71 ↓ 62
2017-11-24 U Каратель / The Punisher [S01] (2017) WEBRip 720p | NewStudio 37.98 GB ↑ 60 ↓ 131
2017-11-23 U Каратель / The Punisher [S01] (2017) WEBRip 1080p | NewStudio 21.89 GB ↑ 52 ↓ 343
2017-11-23 U Каратель / The Punisher [S01] (2017) WEBRip | NewStudio 8.37 GB ↑ 207 ↓ 430

Отзывы
Зарегистрируйтесь чтобы добавить комментарий.
Обратная связь
Copyleft ©