↑↓Torrent.by
Поиск
Логин: Регистрация
Пароль: Восстановить пароль
Загрузка...

Тачки 3 / Cars 3 (2017) BDRip 1080p от New-Team & qqss44 | Лицензия

Скачать tachki-3-cars-2017-bdrip-1080p-ot-new-team-qqss44-licenziya.torrent
U Магнитная ссылка Размер: 5.75 GB Раздают: 104 Качают: 66 Добавлен: 2017-11-19 12:49:12
Тачки 3 / Cars 3 (2017) BDRip 1080p от New-Team & qqss44 | Лицензия

Мы "ВКОНТАКТЕ"

Информация о фильме
Название: Тачки 3
Оригинальное название: Cars 3
Год выпуска: 2017
Жанр: Мультфильм, комедия, приключения, семейный, спорт, полнометражный
Режиссер: Джон Лассетер, Джо Рэнфт
В ролях: Оуэн Уилсон, Пол Ньюман, Бонни Хант, Ларри Кейбл Гай, Чич Марин, Тони Шэлоуб, Гуидо Куарони, Дженифер Льюис, Пол Дули, Майкл Уоллис

О фильме:
Ты стопроцентно уверен, что рождён побеждать! И Кубку Большого Поршня - призу за участие в гонках, не уйти от того, чей девиз таков - "летай как бабочка, жаль как пчела"! Интересно, что же должно произойти с тобой, таким "звёздным гонщиком", чтобы ты в конце концов понял, что может быть "первый" - не всегда честный, "второй" - не совсем лузер, а близкие друзья в жизни намного важнее, чем фары на ночном шоссе?...

Страна: США
Студия: Walt Disney Pictures, Pixar Animation Studios
Продолжительность: 01:42:25
Перевод: Дублированный | Лицензия

Файл
Формат: MKV, BDRip 1080p
Видео: MPEG-4 AVC, 7400 Кбит/с, 1920x804
Aудио#1: [RUS] AC3 | 48 KHz | 5.1 (Front: L С R Side: L R) + LFE | ~640 kbps
Субтитры: русские (полные)
Релиз от:


[+] МИ

Общее
Уникальный идентификатор                 : 244662597591120017297313008716765978387 (0xB8104D6359ED91B3A27C7EB84A13DF13)
Полное имя                               : X:0000Cars.3.(2017).BDRip.1080p.(qqss44).mkv
Формат                                   : Matroska
Версия формата                           : Version 2
Размер файла                             : 5,75 Гбайт
Продолжительность                        : 1 ч. 42 м.
Общий поток                              : 8042 Кбит/сек
Дата кодирования                         : UTC 2017-11-18 09:01:10
Программа кодирования                    : mkvmerge v5.8.0 ('No Sleep / Pillow') built on Sep  2 2012 15:37:04
Библиотека кодирования                   : libebml v1.2.3 + libmatroska v1.3.0

Видео
Идентификатор                            : 1
Формат                                   : AVC
Формат/Информация                        : Advanced Video Codec
Профиль формата                          : High@L4.1
Параметр CABAC формата                   : Да
Параметр ReFrames формата                : 5 кадров
Идентификатор кодека                     : V_MPEG4/ISO/AVC
Продолжительность                        : 1 ч. 42 м.
Битрейт                                  : 7400 Кбит/сек
Ширина                                   : 1920 пикселей
Высота                                   : 804 пикселя
Соотношение сторон                       : 2,40:1
Режим частоты кадров                     : Постоянный
Частота кадров                           : 23,976 (24000/1001) кадра/сек
Цветовое пространство                    : YUV
Субдискретизация насыщенности            : 4:2:0
Битовая глубина                          : 8 бит
Тип развёртки                            : Прогрессивная
Бит/(Пиксели*Кадры)                      : 0.200
Размер потока                            : 5,18 Гбайт (90%)
Библиотека кодирования                   : x264 core 152 r2851kMod ba24899
Настройки программы                      : cabac=1 / ref=5 / deblock=1:0:0 / analyse=0x3:0x113 / me=umh / subme=11 / psy=1 / fade_compensate=0.00 / psy_rd=1.00:0.00 / mixed_ref=1 / me_range=32 / chroma_me=1 / trellis=2 / 8x8dct=1 / cqm=0 / deadzone=21,11 / fast_pskip=0 / chroma_qp_offset=-2 / threads=12 / lookahead_threads=2 / sliced_threads=0 / nr=0 / decimate=0 / interlaced=0 / bluray_compat=0 / constrained_intra=0 / bframes=7 / b_pyramid=2 / b_adapt=2 / b_bias=0 / direct=3 / weightb=1 / open_gop=0 / weightp=2 / keyint=240 / keyint_min=23 / scenecut=40 / intra_refresh=0 / rc_lookahead=40 / rc=2pass / mbtree=0 / bitrate=7400 / ratetol=1.0 / qcomp=0.70 / qpmin=0 / qpmax=69 / qpstep=4 / cplxblur=20.0 / qblur=0.5 / vbv_maxrate=50000 / vbv_bufsize=62500 / nal_hrd=none / filler=0 / ip_ratio=1.40 / pb_ratio=1.30 / aq=3:0.90
Язык                                     : English
Default                                  : Да
Forced                                   : Нет

Аудио
Идентификатор                            : 2
Формат                                   : AC-3
Формат/Информация                        : Audio Coding 3
Расширение режима                        : CM (complete main)
Параметр Endianness формата              : Big
Идентификатор кодека                     : A_AC3
Продолжительность                        : 1 ч. 42 м.
Вид битрейта                             : Постоянный
Битрейт                                  : 640 Кбит/сек
Каналы                                   : 6 каналов
Расположение каналов                     : Front: L C R, Side: L R, LFE
Частота                                  : 48,0 КГц
Частота кадров                           : 31,250 кадров/сек (1536 spf)
Метод сжатия                             : С потерями
Размер потока                            : 469 Мбайт (8%)
Язык                                     : Russian
Default                                  : Да
Forced                                   : Нет

Текст
Идентификатор                            : 3
Формат                                   : UTF-8
Идентификатор кодека                     : S_TEXT/UTF8
Идентификатор кодека/Информация          : UTF-8 Plain Text
Язык                                     : Russian
Default                                  : Нет
Forced                                   : Нет

Меню
00:00:00.000                             : en:Champ McQueen
00:04:57.255                             : en:Storm Front
00:10:54.988                             : en:Crash
00:13:59.422                             : en:Wake-up Call
00:18:15.344                             : en:Phone Call
00:21:07.641                             : en:Modern Training
00:34:08.880                             : en:Deal
00:37:52.103                             : en:Beach
00:42:44.812                             : en:Crazy Eight
00:49:44.398                             : en:Cruz's Dream
00:53:57.734                             : en:Facetime
00:58:17.702                             : en:Olive Branch
00:59:27.522                             : en:Smokey
01:02:15.940                             : en:Hud's Win
01:06:35.533                             : en:It's Over
01:08:33.109                             : en:Old School Training
01:15:48.126                             : en:Florida Arrival
01:20:57.852                             : en:Pit Stop
01:29:42.418                             : en:Victory Lane
01:32:17.031                             : en:Epilogue
01:34:00.092                             : en:End Credits




Скриншоты:
[+] Всего файлов в раздаче - 1:
Cars.3.(2017).BDRip.1080p.(qqss44).mkv5.75 GB

Текущая раздача:
ДатаКомментарии    РазмерПиры
2017-11-19 U Тачки 3 / Cars 3 (2017) BDRip 1080p от New-Team & qqss44 | Лицензия 3 К 5.75 GB ↑ 104 ↓ 66

Показать еще раздачи по запросу тачки:
2017-12-02 U Тачки 3 / Cars 3 (2017) HDRip от Scarabey | Лицензия 1.45 GB ↑ 77 ↓ 35
2017-12-02 U Тачки 3 / Cars 3 (2017) HDRip от Scarabey | Лицензия 746.34 MB ↑ 51 ↓ 9
2017-11-19 U Тачки 3 / Cars 3 (2017) BDRip от ExKinoRay | Лицензия 1.46 GB ↑ 164 ↓ 39
2017-11-18 U Тачки 3 / Cars 3 (2017) BDRip-AVC от HELLYWOOD | Лицензия 1.46 GB ↑ 64 ↓ 16
2017-11-18 U Тачки 3 / Cars 3 (2017) BDRip от MegaPeer | Лицензия 1.46 GB ↑ 71 ↓ 25
2017-11-18 U Тачки 3 / Cars 3 (2017) BDRip 1080p от OlLanDGroup | Лицензия 8.78 GB ↑ 83 ↓ 57
2017-11-18 U Тачки 3 / Cars 3 (2017) BDRip-AVC от HELLYWOOD | Лицензия 2.18 GB ↑ 204 ↓ 23

Отзывы
synth
qqss44

а форс. сабы чего не добавили ?

tim_nastya
Хороший мультик! Разок посмотреть стоит.

Yasha1209
кукус, когда 3д уже будет??

Зарегистрируйтесь чтобы добавить комментарий.
Обратная связь
Copyleft ©