↑↓Torrent.by
Поиск
Логин: Регистрация
Пароль: Восстановить пароль
Загрузка...

6.66 вечера / 6:66 PM (2017) HDTVRip | L2

Скачать 6-66-vechera-pm-2017-hdtvrip-l2.torrent
U Магнитная ссылка Размер: 1.35 GB Раздают: 228 Качают: 82 Добавлен: 2017-11-21 20:34:37
6.66 вечера / 6:66 PM (2017) HDTVRip | L2

Название: 6.66 вечера
Оригинальное название: 6:66 PM

Год выхода: 2017
Жанр: Ужасы, комедия
Режиссер: Джим Клок
В ролях: Джим Клок, Чад Риджли, Отем Федеричи, Майкл Буономо, Робин Ф. Бекер, Скотт Буркхардт, Майк Капоцци и другие
О фильме:
Съемочная группа реалити-шоу проводит расследование о паронормальных явлениях в загадочном доме, но все становится ужасающей реальностью, когда их начинает преследовать призрак серийного убийцы.

Страна: США, Full Auto Films, Code 3 Films
Продолжительность: 01:22:08
Перевод: Любительский (двухголосый закадровый) | RecentFilms

Файл
Кодек: XviD
Качество: HDTVRip
Видео: 720x400, 23,976 fps, ~2157 Kbps, 0.30 bit/pixel
Звук:
Аудио rus: AC3, 48 kHz, 2 ch, 192 Kbps
Субтитры: отсутствуют

Реклама: присутствует

Семпл

Релиз от: RecentFilms


[+] MediaInfo:

General
Complete name                            : F:Films6.66PM.2017.HDTVRip.RecentFilms6.66PM.2017.HDTVRip.RecentFilms.avi
Format                                   : AVI
Format/Info                              : Audio Video Interleave
File size                                : 1.35 GiB
Duration                                 : 1h 22mn
Overall bit rate                         : 2 360 Kbps
Writing application                      : VirtualDubMod 1.5.10.3 (build 2550/release)
Writing library                          : VirtualDubMod build 2550/release

Video
ID                                       : 0
Format                                   : MPEG-4 Visual
Format profile                           : Advanced Simple@L5
Format settings, BVOP                    : 2
Format settings, QPel                    : No
Format settings, GMC                     : No warppoints
Format settings, Matrix                  : Default (H.263)
Muxing mode                              : Packed bitstream
Codec ID                                 : XVID
Codec ID/Hint                            : XviD
Duration                                 : 1h 22mn
Bit rate                                 : 2 158 Kbps
Width                                    : 720 pixels
Height                                   : 400 pixels
Display aspect ratio                     : 16:9
Original display aspect ratio            : 16:9
Frame rate                               : 25.000 fps
Color space                              : YUV
Chroma subsampling                       : 4:2:0
Bit depth                                : 8 bits
Scan type                                : Progressive
Compression mode                         : Lossy
Bits/(Pixel*Frame)                       : 0.300
Stream size                              : 1.24 GiB (91%)
Writing library                          : XviD 73

Audio
ID                                       : 1
Format                                   : AC-3
Format/Info                              : Audio Coding 3
Mode extension                           : CM (complete main)
Format settings, Endianness              : Big
Codec ID                                 : 2000
Duration                                 : 1h 22mn
Bit rate mode                            : Constant
Bit rate                                 : 192 Kbps
Channel(s)                               : 2 channels
Channel positions                        : Front: L R
Sampling rate                            : 48.0 KHz
Frame rate                               : 31.250 fps (1536 spf)
Compression mode                         : Lossy
Stream size                              : 113 MiB (8%)
Alignment                                : Split accross interleaves
Interleave, duration                     : 40 ms (1.00 video frame)
Interleave, preload duration             : 500 ms




Скриншоты:
[+] Всего файлов в раздаче - 1:
6.66PM.2017.HDTVRip.RecentFilms.avi1.35 GB

Похожие раздачи по запросу - вечера:
2018-12-14 U Вечера на хуторе близ Диканьки (1961) WEB-DLRip 720p от New-Team 1.46 GB ↑ 76 ↓ 20
2018-05-21 U Вечера на хуторе близ Диканьки (1962) WEB-DLRip 720p от KORSAR 3.65 GB ↑ 214 ↓ 16
2013-11-11 U Вечера на хуторе близ Диканьки - Н. В. Гоголь (2008) MP3 15К503.36 MB ↑ 3647 ↓ 38
2013-11-11 U Вечера на хуторе близ Диканьки (2001) мюзикл DVDRip 1.46 GB ↑ 11146 ↓ 46
2013-11-09 U Вечера на хуторе близ Диканьки (1961) DVDRip-AVC 2К1.45 GB ↑ 99 ↓ 65532

Отзывы
Зарегистрируйтесь чтобы добавить комментарий.
Обратная связь
Copyleft ©