↑↓Torrent.by
Поиск
Логин: Регистрация
Пароль: Восстановить пароль
Загрузка...

Конор МакГрегор: Печально известный / Conor McGregor: Notorious (2017) WEBRip 720p | L2

Скачать konor-makgregor-pechalno-izvestnyy-conor-mcgregor-notorious-2017-webrip-720p-l2.torrent
U Магнитная ссылка Размер: 2.63 GB Раздают: 36 Качают: 18 Добавлен: 2017-11-24 10:18:47
Конор МакГрегор: Печально известный / Conor McGregor: Notorious (2017) WEBRip 720p | L2

Название: Конор МакГрегор: Печально известный
Оригинальное название: Conor McGregor: Notorious

Год выхода: 2017
Жанр: Документальный, биография, спорт
Режиссер: Гэвин Фитджеральд
В ролях: Хосе Альдо, Ди Девлин, Нейт Диас, Ариэль Хелвани, Джон Кавана, Конор МакГрегор, Катон Пендред, Оуэн Родди, Арнольд Шварцнеггер, Дана Уайт и другие
О фильме:
Снятый в течение 4 лет, фильм представляет собой захватывающий рассказ о личномм и профессиональном росте МакГрегора от проживания в запасной комнате его мамы со своей девушкой, до нескольких поясов чемпиона. Благодаря эксклюзивным интервью, беспрецедентному доступу и боевым материалам, это самый последний закулисный взгляд на спортивную икону МакГрегора и его стремительный подъем.

Страна: Ирландия, Conor McGregor Sports & Entertainment
Продолжительность: 01:30:48
Перевод: Любительский (двухголосый закадровый) | RecentFilms

Файл
Кодек: MPEG-4 AVC/H.264
Качество: WEBRip 720p
Видео: 1280x532, 23,976 fps, ~3944 Kbps, 0.242 bit/pixel
Звук:
Аудио rus: AC3, 48 kHz, 2 ch, 192 Kbps
Субтитры: отсутствуют

Реклама: присутствует

Семпл

Релиз от: RecentFilms


[+] MediaInfo:

General
Unique ID                                : 247057558391049656889610747026148079005 (0xB9DD8E127703DB8AAC8CF8DDA272B59D)
Complete name                            : F:FilmsConor.McGregor.Notorious.2017.720p.WEBRip.RecentFilmsConor.McGregor.Notorious.2017.720p.WEBRip.RecentFilms.mkv
Format                                   : Matroska
Format version                           : Version 4 / Version 2
File size                                : 2.63 GiB
Duration                                 : 1h 30mn
Overall bit rate                         : 4 139 Kbps
Encoded date                             : UTC 2017-11-23 15:34:53
Writing application                      : mkvmerge v7.8.0 ('River Man') 64bit built on Mar 27 2015 16:31:37
Writing library                          : libebml v1.3.1 + libmatroska v1.4.2

Video
ID                                       : 1
Format                                   : AVC
Format/Info                              : Advanced Video Codec
Format profile                           : Main@L3.2
Format settings, CABAC                   : Yes
Format settings, ReFrames                : 3 frames
Codec ID                                 : V_MPEG4/ISO/AVC
Duration                                 : 1h 30mn
Bit rate                                 : 3 944 Kbps
Width                                    : 1 280 pixels
Height                                   : 532 pixels
Display aspect ratio                     : 2.40:1
Frame rate mode                          : Constant
Frame rate                               : 23.976 (24000/1001) fps
Standard                                 : NTSC
Color space                              : YUV
Chroma subsampling                       : 4:2:0
Bit depth                                : 8 bits
Scan type                                : Progressive
Bits/(Pixel*Frame)                       : 0.242
Stream size                              : 2.50 GiB (95%)
Language                                 : English
Default                                  : Yes
Forced                                   : No
Color range                              : Limited
Color primaries                          : BT.601 NTSC
Transfer characteristics                 : BT.601
Matrix coefficients                      : BT.601

Audio
ID                                       : 2
Format                                   : AC-3
Format/Info                              : Audio Coding 3
Mode extension                           : CM (complete main)
Format settings, Endianness              : Big
Codec ID                                 : A_AC3
Duration                                 : 1h 30mn
Bit rate mode                            : Constant
Bit rate                                 : 192 Kbps
Channel(s)                               : 2 channels
Channel positions                        : Front: L R
Sampling rate                            : 48.0 KHz
Frame rate                               : 31.250 fps (1536 spf)
Compression mode                         : Lossy
Stream size                              : 125 MiB (5%)
Default                                  : Yes
Forced                                   : No




Скриншоты:
[+] Всего файлов в раздаче - 1:
Conor.McGregor.Notorious.2017.720p.WEBRip.RecentFilms.mkv2.63 GB

Текущая раздача:
ДатаКомментарии    РазмерПиры
2017-11-24 U Конор МакГрегор: Печально известный / Conor McGregor: Notorious (2017) WEBRip 720p | L2 2.63 GB ↑ 36 ↓ 18

Показать еще раздачи по запросу конор:
2017-11-24 U Конор МакГрегор: Печально известный / Conor McGregor: Notorious (2017) WEBRip | L2 1.37 GB ↑ 44 ↓ 20
2017-08-28 U Бокс. Флойд Мейвезер - Конор Макгрегор [Первый канал] [26.08] (2017) HDTVRip-HEVC 720p | 50 fps 1.21 GB ↑ 40 ↓ 25
2017-08-27 U Бокс. Флойд Мейвезер - Конор Макгрегор [Первый канал] [26.08] (2017) HDTVRip 1.13 GB ↑ 322 ↓ 80
2017-08-27 U Флойд Мейвезер - Конор Макгрегор [26.08.2017, Бокс, HDTVRip/720p/50fps, Первый HD, RU] 2.29 GB ↑ 1575 ↓ 442
2017-08-27 U Бокс. Флойд Мейвезер - Конор Макгрегор [26.08] (2017) WEBRip 720p 984.00 MB ↑ 58 ↓ 81
2017-08-27 U Бокс. Флойд Мейвезер - Конор Макгрегор [Первый канал] [26.08] (2017) HDTVRip 720p | 50 fps 2.29 GB ↑ 126 ↓ 164
2017-08-27 U Бокс. Флойд Мейвезер - Конор Макгрегор [Первый канал] [26.08] (2017) HDTVRip 720p 1.69 GB ↑ 1209 ↓ 722

Отзывы
Зарегистрируйтесь чтобы добавить комментарий.
Обратная связь
Copyleft ©