↑↓Torrent.by
Поиск
Логин: Регистрация
Пароль: Восстановить пароль
Загрузка...

Конор МакГрегор: Печально известный / Conor McGregor: Notorious (2017) WEBRip | L2

Скачать konor-makgregor-pechalno-izvestnyy-conor-mcgregor-notorious-2017-webrip-l2.torrent
U Магнитная ссылка Размер: 1.37 GB Раздают: 44 Качают: 20 Добавлен: 2017-11-24 15:29:20
Конор МакГрегор: Печально известный / Conor McGregor: Notorious (2017) WEBRip | L2

Название: Конор МакГрегор: Печально известный
Оригинальное название: Conor McGregor: Notorious

Год выхода: 2017
Жанр: Документальный, биография, спорт
Режиссер: Гэвин Фитджеральд
В ролях: Хосе Альдо, Ди Девлин, Нейт Диас, Ариэль Хелвани, Джон Кавана, Конор МакГрегор, Катон Пендред, Оуэн Родди, Арнольд Шварцнеггер, Дана Уайт и другие
О фильме:
Снятый в течение 4 лет, фильм представляет собой захватывающий рассказ о личномм и профессиональном росте МакГрегора от проживания в запасной комнате его мамы со своей девушкой, до нескольких поясов чемпиона. Благодаря эксклюзивным интервью, беспрецедентному доступу и боевым материалам, это самый последний закулисный взгляд на спортивную икону МакГрегора и его стремительный подъем.

Страна: Ирландия, Conor McGregor Sports & Entertainment
Продолжительность: 01:30:48
Перевод: Любительский (двухголосый закадровый) | RecentFilms

Файл
Кодек: XviD
Качество: WEBRip
Видео: 720x304, 23,976 fps, ~1953 Kbps, 0.37 bit/pixel
Звук:
Аудио rus: AC3, 48 kHz, 2 ch, 192 Kbps
Субтитры: отсутствуют

Реклама: присутствует

Семпл

Релиз от: RecentFilms


[+] MediaInfo:

General
Complete name                            : F:FilmsConor.McGregor.Notorious.2017.WEBRip.RecentFilmsConor.McGregor.Notorious.2017.WEBRip.RecentFilms.avi
Format                                   : AVI
Format/Info                              : Audio Video Interleave
File size                                : 1.37 GiB
Duration                                 : 1h 30mn
Overall bit rate                         : 2 155 Kbps
Writing application                      : VirtualDubMod 1.5.10.2 (build 2540/release)
Writing library                          : VirtualDubMod build 2540/release

Video
ID                                       : 0
Format                                   : MPEG-4 Visual
Format profile                           : Advanced Simple@L5
Format settings, BVOP                    : 1
Format settings, QPel                    : No
Format settings, GMC                     : No warppoints
Format settings, Matrix                  : Default (H.263)
Codec ID                                 : XVID
Codec ID/Hint                            : XviD
Duration                                 : 1h 30mn
Bit rate                                 : 1 954 Kbps
Width                                    : 720 pixels
Height                                   : 304 pixels
Display aspect ratio                     : 2.40:1
Frame rate                               : 23.976 (24000/1001) fps
Color space                              : YUV
Chroma subsampling                       : 4:2:0
Bit depth                                : 8 bits
Scan type                                : Progressive
Compression mode                         : Lossy
Bits/(Pixel*Frame)                       : 0.372
Stream size                              : 1.24 GiB (91%)
Writing library                          : XviD 67

Audio
ID                                       : 1
Format                                   : AC-3
Format/Info                              : Audio Coding 3
Mode extension                           : CM (complete main)
Format settings, Endianness              : Big
Codec ID                                 : 2000
Duration                                 : 1h 30mn
Bit rate mode                            : Constant
Bit rate                                 : 192 Kbps
Channel(s)                               : 2 channels
Channel positions                        : Front: L R
Sampling rate                            : 48.0 KHz
Frame rate                               : 31.250 fps (1536 spf)
Compression mode                         : Lossy
Stream size                              : 125 MiB (9%)
Alignment                                : Split accross interleaves
Interleave, duration                     : 42 ms (1.00 video frame)
Interleave, preload duration             : 500 ms




Скриншоты:
[+] Всего файлов в раздаче - 1:
Conor.McGregor.Notorious.2017.WEBRip.RecentFilms.avi1.37 GB

Текущая раздача:
ДатаКомментарии    РазмерПиры
2017-11-24 U Конор МакГрегор: Печально известный / Conor McGregor: Notorious (2017) WEBRip | L2 1.37 GB ↑ 44 ↓ 20

Показать еще раздачи по запросу конор:
2017-11-24 U Конор МакГрегор: Печально известный / Conor McGregor: Notorious (2017) WEBRip 720p | L2 2.63 GB ↑ 36 ↓ 18
2017-08-28 U Бокс. Флойд Мейвезер - Конор Макгрегор [Первый канал] [26.08] (2017) HDTVRip-HEVC 720p | 50 fps 1.21 GB ↑ 40 ↓ 25
2017-08-27 U Бокс. Флойд Мейвезер - Конор Макгрегор [Первый канал] [26.08] (2017) HDTVRip 1.13 GB ↑ 322 ↓ 80
2017-08-27 U Флойд Мейвезер - Конор Макгрегор [26.08.2017, Бокс, HDTVRip/720p/50fps, Первый HD, RU] 2.29 GB ↑ 1575 ↓ 442
2017-08-27 U Бокс. Флойд Мейвезер - Конор Макгрегор [26.08] (2017) WEBRip 720p 984.00 MB ↑ 58 ↓ 81
2017-08-27 U Бокс. Флойд Мейвезер - Конор Макгрегор [Первый канал] [26.08] (2017) HDTVRip 720p | 50 fps 2.29 GB ↑ 126 ↓ 164
2017-08-27 U Бокс. Флойд Мейвезер - Конор Макгрегор [Первый канал] [26.08] (2017) HDTVRip 720p 1.69 GB ↑ 1205 ↓ 722

Отзывы
Зарегистрируйтесь чтобы добавить комментарий.
Обратная связь
Copyleft ©