↑↓Torrent.by
Поиск
Логин: Регистрация
Пароль: Восстановить пароль
Загрузка...

Валериан и город тысячи планет / Valerian and the City of a Thousand Planets (2017) BDRip-HEVC 1080p от ХиМиК | D

Скачать valerian-i-gorod-tysyachi-planet-and-the-city-of-a-thousand-planets-2017-bdrip-hevc-1080p-ot-himik-d.torrent
U Магнитная ссылка Размер: 6.19 GB Раздают: 429 Качают: 345 Добавлен: 2017-11-26 21:47:11
Валериан и город тысячи планет / Valerian and the City of a Thousand Planets (2017) BDRip-HEVC 1080p от ХиМиК | D

Название: Валериан и город тысячи планет
Оригинальное название: Valerian and the City of a Thousand Planets
Год выхода: 217
Жанр: Фантастика, фэнтези, боевик, приключения
Режиссер: Люк Бессон
В ролях: Дэйн ДеХаан, Кара Делевинь, Клайв Оуэн, Рианна, Итэн Хоук, Херби Хэнкок, Крис У, Сэм Спруэлл, Ален Шаба, Рутгер Хауэр

О фильме:
Валериан и Лорелин - на вид милые юноша и девушка с открытыми, преисполненными общечеловеческими идеалами лицами. Между тем, оба - агенты полицейских сил, отличники строевой и политической, морально устойчивы, в быту выдержаны и беспощадны к врагам Земного Альянса. И вот этот образцовый коллектив прибывает на космическую станцию "Альфа", которая за семь с лишним веков разрослась от МКС до огромного лабиринта планетарного масштаба. Станцию населяют более 30 миллионов существ из тысячи разных миров. Существа мирно делят квадратные метры, обмениваются передовым опытом и активно занимаются установлением гармонии среди миролюбивых народов интергалактического товарищества. Однако, в недрах комплекса зреет и борется за жизненное пространство радиационная аномалия, угрожающая развалить на части все достижения народного хозяйства. Крепко спаянному дуэту агентов предстоит не только распутать это гиблое дело в конкретно сжатые сроки, но и преодолеть сопротивление полностью разложившихся субъектов и прочих беззастенчивых элементов, готовых на все ради собственной выгоды.

Страна: Франция
Студия: EuropaCorp, Fundamental Films, Grive Productions, Gulf Film, Novo Pictures
Продолжительность: 02:18:03
Перевод: Дублированный

Файл
Кодек: HEVC x265 10 bit
Качество: BDRip-HEVC 1080p
Видео: 1920x804 (2.40:1), 5524 Кбит/сек, 0.149 бит/(Пиксели*Кадры), 23,976 кадр/сек (24000/1001), HEVC (Main10@L.5.1@High) 10 бит
Звук:
Русская, AC3, 448 Кбит/сек, Front: L C R, Side: L R, LFE, 48,0 КГц (Дублированный)
Английская, AC3, 448 Кбит/сек, Front: L C R, Side: L R, LFE, 48,0 КГц (Оригинал)
Субтитры: Русские (полные, форсированные), английские

Семпл

Релиз от: от XuMuK


[+] MediaInfo

General
Unique ID                   : 195464135893365386330627178083777020651 (0x930D05F2DD86393DBF59DC2FF79882EB)
Complete name               : I:HEVC 210 BITValerian and the City of a Thousand Planets_2017_BDRip_1080p_[HEVC]_10bit.mkv
Format                      : Matroska
Format version              : Version 4 / Version 2
File size                   : 6.19 GiB
Duration                    : 2 h 18 min
Overall bit rate            : 6 419 kb/s
Encoded date                : UTC 2017-11-26 14:36:59
Writing application         : mkvmerge v9.9.0 ('Pick Up') 64bit
Writing library             : libebml v1.3.4 + libmatroska v1.4.5
Cover                       : Yes
Attachments                 : cover.png

Video
ID                          : 1
Format                      : HEVC
Format/Info                 : High Efficiency Video Coding
Format profile              : Main 10@L5.1@High
Codec ID                    : V_MPEGH/ISO/HEVC
Duration                    : 2 h 18 min
Bit rate                    : 5 524 kb/s
Width                       : 1 920 pixels
Height                      : 804 pixels
Display aspect ratio        : 2.40:1
Frame rate mode             : Constant
Frame rate                  : 23.976 (24000/1001) FPS
Color space                 : YUV
Chroma subsampling          : 4:2:0
Bit depth                   : 10 bits
Bits/(Pixel*Frame)          : 0.149
Stream size                 : 5.33 GiB (86%)
Writing library             : x265 2.5+14-2718cb5dd67f:[Windows][GCC 7.1.0][64 bit] 10bit
Encoding settings           : cpuid=1173503 / frame-threads=4 / numa-pools=16 / wpp / no-pmode / no-pme / no-psnr / no-ssim / log-level=2 / input-csp=1 / input-res=1920x804 / interlace=0 / total-frames=0 / level-idc=51 / high-tier=1 / uhd-bd=0 / ref=5 / no-allow-non-conformance / no-repeat-headers / annexb / no-aud / no-hrd / info / hash=0 / no-temporal-layers / open-gop / min-keyint=23 / keyint=240 / bframes=8 / b-adapt=2 / b-pyramid / bframe-bias=0 / rc-lookahead=40 / lookahead-slices=4 / scenecut=40 / no-intra-refresh / ctu=64 / min-cu-size=8 / rect / no-amp / max-tu-size=32 / tu-inter-depth=2 / tu-intra-depth=4 / limit-tu=1 / rdoq-level=0 / dynamic-rd=0.00 / no-ssim-rd / signhide / no-tskip / nr-intra=0 / nr-inter=0 / no-constrained-intra / no-strong-intra-smoothing / max-merge=3 / limit-refs=3 / limit-modes / me=3 / subme=7 / merange=57 / temporal-mvp / weightp / no-weightb / no-analyze-src-pics / deblock=-3:-3 / no-sao / no-sao-non-deblock / rd=4 / no-early-skip / no-rskip / no-fast-intra / no-tskip-fast / no-cu-lossless / no-b-intra / no-splitrd-skip / rdpenalty=0 / psy-rd=4.00 / psy-rdoq=0.00 / no-rd-refine / analysis-reuse-mode=0 / no-lossless / cbqpoffs=0 / crqpoffs=0 / rc=crf / crf=20.0 / qcomp=0.60 / qpstep=1 / stats-write=0 / stats-read=0 / vbv-maxrate=160000 / vbv-bufsize=160000 / vbv-init=0.9 / crf-max=0.0 / crf-min=0.0 / ipratio=1.10 / pbratio=1.00 / aq-mode=0 / aq-strength=0.00 / no-cutree / zone-count=1 / zones: / start-frame=187570 / end-frame=198601 / qp=35 / no-strict-cbr / qg-size=32 / rc-grain / qpmax=69 / qpmin=0 / no-const-vbv / sar=0 / overscan=0 / videoformat=5 / range=0 / colorprim=2 / transfer=2 / colormatrix=1 / chromaloc=0 / display-window=0 / max-cll=0,0 / min-luma=0 / max-luma=1023 / log2-max-poc-lsb=8 / vui-timing-info / vui-hrd-info / slices=1 / opt-qp-pps / opt-ref-list-length-pps / no-multi-pass-opt-rps / scenecut-bias=0.05 / no-opt-cu-delta-qp / no-aq-motion / no-hdr / no-hdr-opt / no-dhdr10-opt / analysis-reuse-level=5 / scale-factor=0 / refine-intra=0 / refine-inter=0 / refine-mv=0 / no-limit-sao / ctu-info=0
Default                     : Yes
Forced                      : Yes
Color range                 : Limited
Matrix coefficients         : BT.709

Audio #1
ID                          : 2
Format                      : AC-3
Format/Info                 : Audio Coding 3
Format settings, Endianness : Big
Codec ID                    : A_AC3
Duration                    : 2 h 16 min
Bit rate mode               : Constant
Bit rate                    : 448 kb/s
Channel(s)                  : 6 channels
Channel positions           : Front: L C R, Side: L R, LFE
Sampling rate               : 48.0 kHz
Frame rate                  : 31.250 FPS (1536 SPF)
Bit depth                   : 16 bits
Compression mode            : Lossy
Delay relative to video     : 21 s 323 ms
Stream size                 : 438 MiB (7%)
Title                       : Dub
Language                    : Russian
Service kind                : Complete Main
Default                     : Yes
Forced                      : No

Audio #2
ID                          : 3
Format                      : AC-3
Format/Info                 : Audio Coding 3
Format settings, Endianness : Big
Codec ID                    : A_AC3
Duration                    : 2 h 18 min
Bit rate mode               : Constant
Bit rate                    : 448 kb/s
Channel(s)                  : 6 channels
Channel positions           : Front: L C R, Side: L R, LFE
Sampling rate               : 48.0 kHz
Frame rate                  : 31.250 FPS (1536 SPF)
Bit depth                   : 16 bits
Compression mode            : Lossy
Stream size                 : 442 MiB (7%)
Language                    : English
Service kind                : Complete Main
Default                     : No
Forced                      : No

Text #1
ID                          : 4
Format                      : UTF-8
Codec ID                    : S_TEXT/UTF8
Codec ID/Info               : UTF-8 Plain Text
Duration                    : 1 h 16 min
Bit rate                    : 0 b/s
Count of elements           : 16
Stream size                 : 556 Bytes (0%)
Title                       : Форс.
Language                    : Russian
Default                     : Yes
Forced                      : No

Text #2
ID                          : 5
Format                      : UTF-8
Codec ID                    : S_TEXT/UTF8
Codec ID/Info               : UTF-8 Plain Text
Duration                    : 2 h 6 min
Bit rate                    : 87 b/s
Count of elements           : 1541
Stream size                 : 81.3 KiB (0%)
Title                       : Полные
Language                    : Russian
Default                     : No
Forced                      : No

Text #3
ID                          : 6
Format                      : UTF-8
Codec ID                    : S_TEXT/UTF8
Codec ID/Info               : UTF-8 Plain Text
Duration                    : 3 min 42 s
Bit rate                    : 4 b/s
Count of elements           : 6
Stream size                 : 123 Bytes (0%)
Title                       : Форс.
Language                    : English
Default                     : No
Forced                      : No

Text #4
ID                          : 7
Format                      : UTF-8
Codec ID                    : S_TEXT/UTF8
Codec ID/Info               : UTF-8 Plain Text
Duration                    : 2 h 13 min
Bit rate                    : 56 b/s
Count of elements           : 1630
Stream size                 : 55.7 KiB (0%)
Title                       : Полные
Language                    : English
Default                     : No
Forced                      : No

Menu
00:00:00.000                : :Chapter 01
00:12:35.713                : :Chapter 02
00:17:29.590                : :Chapter 03
00:23:35.789                : :Chapter 04
00:32:45.838                : :Chapter 05
00:41:19.143                : :Chapter 06
00:47:15.666                : :Chapter 07
00:56:12.410                : :Chapter 08
01:04:25.695                : :Chapter 09
01:11:27.908                : :Chapter 10
01:20:25.070                : :Chapter 11
01:28:13.705                : :Chapter 12
01:35:53.914                : :Chapter 13
01:41:35.047                : :Chapter 14
01:53:37.852                : :Chapter 15
02:02:22.585                : :Chapter 16



Скриншоты:
[+] Всего файлов в раздаче - 1:
Valerian and the City of a Thousand Planets_2017_BDRip_1080p_[HEVC]_10bit.mkv6.19 GB

Текущая раздача:
ДатаКомментарии    РазмерПиры
2017-11-26 U Валериан и город тысячи планет / Valerian and the City of a Thousand Planets (2017) BDRip-HEVC 1080p от ХиМиК | D 6.19 GB ↑ 429 ↓ 345

Показать еще раздачи по запросу валериан:
2017-11-30 U Валериан и город тысячи планет / Valerian and the City of a Thousand Planets (2017) HDRip от Scarabey | iTunes 1.45 GB ↑ 129 ↓ 35
2017-11-30 U Валериан и город тысячи планет / Valerian and the City of a Thousand Planets (2017) BDRip 720p от Scarabey | iTunes 6.67 GB ↑ 155 ↓ 78
2017-11-30 U Валериан и город тысячи планет / Valerian and the City of a Thousand Planets (2017) HDRip от Scarabey | iTunes 2.12 GB ↑ 118 ↓ 49
2017-11-29 U Валериан и город тысячи планет / Valerian and the City of a Thousand Planets (2017) BDRip от ExKinoRay | iTunes 1К1.46 GB ↑ 352 ↓ 94
2017-11-29 U Валериан и город тысячи планет / Valerian and the City of a Thousand Planets (2017) BDRip от ExKinoRay | iTunes 2.12 GB ↑ 430 ↓ 221
2017-11-29 U Валериан и город тысячи планет / Valerian and the City of a Thousand Planets (2017) HDRip от Scarabey | iTunes 797.04 MB ↑ 83 ↓ 27
2017-11-29 U Валериан и город тысячи планет / Valerian and the City of a Thousand Planets (2017) BDRip-HEVC 1080p от HEVC CLUB | iTunes 5.81 GB ↑ 109 ↓ 61

Отзывы
Зарегистрируйтесь чтобы добавить комментарий.
Обратная связь
Copyleft ©