↑↓Torrent.by
Поиск
Логин: Регистрация
Пароль: Восстановить пароль
Загрузка...

Валериан и город тысячи планет / Valerian and the City of a Thousand Planets (2017) BDRemux 1080p от ExKinoRay | D, A | iTunes

Скачать valerian-i-gorod-tysyachi-planet-and-the-city-of-a-thousand-planets-2017-bdremux-1080p-ot-exkinoray-d-itunes.torrent
U Магнитная ссылка Размер: 28.43 GB Раздают: 98 Качают: 118 Добавлен: 2017-11-28 16:00:00
Валериан и город тысячи планет / Valerian and the City of a Thousand Planets (2017) BDRemux 1080p от ExKinoRay | D, A | iTunes

Название: Валериан и город тысячи планет
Оригинальное название: Valerian and the City of a Thousand Planets
Год выхода: 2017
Жанр: Фантастика, фэнтези, боевик, приключения
Режиссер: Люк Бессон
В ролях: Дэйн ДеХаан, Кара Делевинь, Клайв Оуэн, Рианна, Итэн Хоук, Херби Хэнкок, Крис У, Сэм Спруэлл, Ален Шаба, Рутгер Хауэр

О фильме:
2700 год. Валериан и Лорелин — космические спецагенты, которые по долгу службы впутались в подозрительное дело и стали невольными участниками то ли межгалактического заговора, то ли аферы причудливых поселенцев планеты Альфа, прибывших туда из различных миров со всех уголков галактик.

Страна: Франция
Студия: EuropaCorp, Fundamental Films, Grive Productions, Gulf Film, Novo Pictures
Продолжительность: 02:17:03
Перевод(ы):
#1: Дублированный | iTunes
#2: Авторский | Смирнов

Файл
Качество: BDRemux 1080p
Видео: MPEG-4 AVC, 1920x1080, 24.0 Mbit/s, 23.976 fps
Звук:
Аудио #01: 48 kHz, AC3, 5.1, 384 Kbps | Дублированный | RUS |
Аудио #02: 48 kHz, AC3, 2.0, 192 Kbps | Авторский (Смирнов (С переводом песен)) | RUS |
Аудио #03: 48 kHz, TrueHD, 7.1, 4425 Kbps | Оригинал |  ENG |
Аудио #04: 48 kHz, AC3, 5.1, 640 Kbps | Оригинал |  ENG |
Субтитры: Русские (forced, full), английские

Релиз: Автор релиза:


[+] MI
General
Unique ID                   : 172216146684532046784677304630315898828 (0x818F9F95E03148D9874EE40E9DB4D7CC)
Complete name               : G:Valerian.and.the.City.of.a.Thousand.Planets.2017.D.BDREMUX.1080p.ExKinoRay.mkv
Format                      : Matroska
Format version              : Version 4 / Version 2
File size                   : 28.4 GiB
Duration                    : 2 h 17 min
Overall bit rate mode       : Variable
Overall bit rate            : 29.6 Mb/s
Movie name                  : Valerian and the City of a Thousand Planets.ExKinoRay
Encoded date                : UTC 2017-11-28 02:55:08
Writing application         : mkvmerge v17.0.0 ('Be Ur Friend') 64-bit
Writing library             : libebml v1.3.5 + libmatroska v1.4.8

Video
ID                          : 1
Format                      : AVC
Format/Info                 : Advanced Video Codec
Format profile              : High@L4.1
Format settings             : CABAC / 4 Ref Frames
Format settings, CABAC      : Yes
Format settings, RefFrames  : 4 frames
Codec ID                    : V_MPEG4/ISO/AVC
Duration                    : 2 h 17 min
Bit rate mode               : Variable
Bit rate                    : 24.0 Mb/s
Maximum bit rate            : 37.0 Mb/s
Width                       : 1 920 pixels
Height                      : 1 080 pixels
Display aspect ratio        : 16:9
Frame rate mode             : Constant
Frame rate                  : 23.976 (24000/1001) FPS
Color space                 : YUV
Chroma subsampling          : 4:2:0
Bit depth                   : 8 bits
Scan type                   : Progressive
Bits/(Pixel*Frame)          : 0.482
Stream size                 : 23.0 GiB (81%)
Language                    : English
Default                     : Yes
Forced                      : No

Audio #1
ID                          : 2
Format                      : AC-3
Format/Info                 : Audio Coding 3
Format settings, Endianness : Big
Codec ID                    : A_AC3
Duration                    : 2 h 17 min
Bit rate mode               : Constant
Bit rate                    : 384 kb/s
Channel(s)                  : 6 channels
Channel positions           : Front: L C R, Side: L R, LFE
Sampling rate               : 48.0 kHz
Frame rate                  : 31.250 FPS (1536 SPF)
Bit depth                   : 16 bits
Compression mode            : Lossy
Stream size                 : 376 MiB (1%)
Title                       : iTunes
Language                    : Russian
Service kind                : Complete Main
Default                     : Yes
Forced                      : No

Audio #2
ID                          : 3
Format                      : AC-3
Format/Info                 : Audio Coding 3
Format settings, Endianness : Big
Codec ID                    : A_AC3
Duration                    : 2 h 17 min
Bit rate mode               : Constant
Bit rate                    : 192 kb/s
Channel(s)                  : 2 channels
Channel positions           : Front: L R
Sampling rate               : 48.0 kHz
Frame rate                  : 31.250 FPS (1536 SPF)
Bit depth                   : 16 bits
Compression mode            : Lossy
Stream size                 : 189 MiB (1%)
Title                       : AVO
Language                    : Russian
Service kind                : Complete Main
Default                     : No
Forced                      : No

Audio #3
ID                          : 4
Format                      : TrueHD
Format profile              : TrueHD+Atmos / TrueHD
Codec ID                    : A_TRUEHD
Duration                    : 2 h 17 min
Bit rate mode               : Variable
Bit rate                    : 4 425 kb/s
Maximum bit rate            : 5 958 kb/s
Channel(s)                  : Object Based / 8 channels
Channel positions           : Object Based / Front: L C R, Side: L R, Back: L R, LFE
Sampling rate               :  / 48.0 kHz
Frame rate                  : 1 200.000 FPS (40 SPF)
Compression mode            : Lossless
Stream size                 : 4.24 GiB (15%)
Title                       : Original
Language                    : English
Default                     : No
Forced                      : No

Audio #4
ID                          : 5
Format                      : AC-3
Format/Info                 : Audio Coding 3
Format settings, Endianness : Big
Codec ID                    : A_AC3
Duration                    : 2 h 17 min
Bit rate mode               : Constant
Bit rate                    : 640 kb/s
Channel(s)                  : 6 channels
Channel positions           : Front: L C R, Side: L R, LFE
Sampling rate               : 48.0 kHz
Frame rate                  : 31.250 FPS (1536 SPF)
Bit depth                   : 16 bits
Compression mode            : Lossy
Stream size                 : 627 MiB (2%)
Language                    : English
Service kind                : Complete Main
Default                     : No
Forced                      : No

Text #1
ID                          : 6
Format                      : UTF-8
Codec ID                    : S_TEXT/UTF8
Codec ID/Info               : UTF-8 Plain Text
Duration                    : 2 h 8 min
Bit rate                    : 1 b/s
Count of elements           : 34
Stream size                 : 1.11 KiB (0%)
Title                       : Forced
Language                    : Russian
Default                     : Yes
Forced                      : No

Text #2
ID                          : 7
Format                      : UTF-8
Codec ID                    : S_TEXT/UTF8
Codec ID/Info               : UTF-8 Plain Text
Duration                    : 2 h 6 min
Bit rate                    : 87 b/s
Count of elements           : 1541
Stream size                 : 81.3 KiB (0%)
Title                       : Full
Language                    : Russian
Default                     : No
Forced                      : No

Text #3
ID                          : 8
Format                      : UTF-8
Codec ID                    : S_TEXT/UTF8
Codec ID/Info               : UTF-8 Plain Text
Duration                    : 2 h 8 min
Bit rate                    : 54 b/s
Count of elements           : 1569
Stream size                 : 51.3 KiB (0%)
Title                       : Full
Language                    : English
Default                     : No
Forced                      : No

Text #4
ID                          : 9
Format                      : UTF-8
Codec ID                    : S_TEXT/UTF8
Codec ID/Info               : UTF-8 Plain Text
Duration                    : 2 h 13 min
Bit rate                    : 63 b/s
Count of elements           : 1906
Stream size                 : 62.4 KiB (0%)
Title                       : SDH
Language                    : English
Default                     : No
Forced                      : No

Menu
00:00:00.000                : en:00:00:00.000
00:12:35.713                : en:00:12:35.713
00:17:29.590                : en:00:17:29.590
00:23:35.789                : en:00:23:35.789
00:32:45.839                : en:00:32:45.839
00:41:19.143                : en:00:41:19.143
00:47:15.666                : en:00:47:15.666
00:56:12.411                : en:00:56:12.411
01:04:25.695                : en:01:04:25.695
01:11:27.908                : en:01:11:27.908
01:20:25.070                : en:01:20:25.070
01:28:13.705                : en:01:28:13.705
01:35:53.915                : en:01:35:53.915
01:41:35.047                : en:01:41:35.047
01:53:37.853                : en:01:53:37.853
02:02:22.585                : en:02:02:22.585



[+] картинка



Скриншоты:
[+] Всего файлов в раздаче - 1:
Valerian.and.the.City.of.a.Thousand.Planets.2017.D.BDREMUX.1080p.ExKinoRay.mkv28.43 GB

Текущая раздача:
ДатаКомментарии    РазмерПиры
2017-11-28 U Валериан и город тысячи планет / Valerian and the City of a Thousand Planets (2017) BDRemux 1080p от ExKinoRay | D, A | iTunes 28.43 GB ↑ 98 ↓ 118

Показать еще раздачи по запросу валериан:
2017-11-30 U Валериан и город тысячи планет / Valerian and the City of a Thousand Planets (2017) HDRip от Scarabey | iTunes 1.45 GB ↑ 129 ↓ 35
2017-11-30 U Валериан и город тысячи планет / Valerian and the City of a Thousand Planets (2017) BDRip 720p от Scarabey | iTunes 6.67 GB ↑ 156 ↓ 78
2017-11-30 U Валериан и город тысячи планет / Valerian and the City of a Thousand Planets (2017) HDRip от Scarabey | iTunes 2.12 GB ↑ 118 ↓ 49
2017-11-29 U Валериан и город тысячи планет / Valerian and the City of a Thousand Planets (2017) BDRip от ExKinoRay | iTunes 1К1.46 GB ↑ 353 ↓ 94
2017-11-29 U Валериан и город тысячи планет / Valerian and the City of a Thousand Planets (2017) BDRip от ExKinoRay | iTunes 2.12 GB ↑ 430 ↓ 221
2017-11-29 U Валериан и город тысячи планет / Valerian and the City of a Thousand Planets (2017) HDRip от Scarabey | iTunes 797.04 MB ↑ 83 ↓ 27
2017-11-29 U Валериан и город тысячи планет / Valerian and the City of a Thousand Planets (2017) BDRip-HEVC 1080p от HEVC CLUB | iTunes 5.81 GB ↑ 109 ↓ 61

Отзывы
Зарегистрируйтесь чтобы добавить комментарий.
Обратная связь
Copyleft ©