↑↓Torrent.by
Поиск
Логин: Регистрация
Пароль: Восстановить пароль
Загрузка...

Жизнь впереди (2017) WEB-DL 1080p | iTunes

Скачать zhizn-vperedi-2017-web-dl-1080p-itunes.torrent
U Магнитная ссылка Размер: 3.34 GB Раздают: 475 Качают: 349 Добавлен: 2017-12-01 10:09:02
Жизнь впереди (2017) WEB-DL 1080p | iTunes

Название: Жизнь впереди
Год выхода: 2017
Жанр:  Комедия
Режиссер: Карен Оганесян
В ролях: Светлана Ходченкова, Александр Паль, Павел Прилучный, Артур Смольянинов, Денис Шведов, Егор Корешков, Ольга Медынич, Максим Виторган, Валерия Кожевникова, Юлия Александрова

О фильме:
11-й «Б» впервые собирается вместе через 15 лет после выпуска, и эта встреча для одноклассников — удивительная возможность на короткое время вернуться в прошлое. Старые секреты и личные счеты, обиды и первая любовь оборачиваются водоворотом страстей.

Страна: Россия
Студия: Кинокомпания «Kargo»
Продолжительность: 01:25:05
Перевод: Не требуется | iTunes

Файл
Качество: WEB-DL 1080p
Кодек: MPEG-4 AVC
Видео: 1920x1080 (16:9), 24 fps, MPEG-4 AVC ~ 5118 kbps avg, 0.103 bit/pixel
Аудио: AC3, 48 kHz, 6 ch, ~384.00 kbps avg | русский |  
Субтитры: Отсутствуют


[+] Инфо-файл
Общее
Уникальный идентификатор                 : 227179223045098988615755756067608167077 (0xAAE920789EC5E1EBBF9B7D4A275D82A5)
Полное имя                               : D:TorrentsЗавершенныеZHIZN_VPEREDI_WEB_DL_1080p-BLUEBIRD.mkv
Формат                                   : Matroska
Версия формата                           : Version 4 / Version 2
Размер файла                             : 3,34 Гбайт
Продолжительность                        : 1 ч. 25 м.
Общий поток                              : 5614 Кбит/сек
Название фильма                          : ZHIZN_VPEREDI_WEB_DL_1080p-BLUEBIRD
Дата кодирования                         : UTC 2017-11-30 18:31:09
Программа кодирования                    : mkvmerge v6.9.1 ('Blue Panther') 32bit built on Apr 18 2014 18:15:44
Библиотека кодирования                   : libebml v1.3.0 + libmatroska v1.4.1

Видео
Идентификатор                            : 1
Формат                                   : AVC
Формат/Информация                        : Advanced Video Codec
Профиль формата                          : High@L4
Параметр CABAC формата                   : Да
Параметр ReFrames формата                : 4 кадра
Идентификатор кодека                     : V_MPEG4/ISO/AVC
Продолжительность                        : 1 ч. 25 м.
Битрейт                                  : 5118 Кбит/сек
Ширина                                   : 1920 пикселей
Высота                                   : 1080 пикселей
Соотношение сторон                       : 16:9
Режим частоты кадров                     : Постоянный
Частота кадров                           : 24,000 кадра/сек
Цветовое пространство                    : YUV
Субдискретизация насыщенности            : 4:2:0
Битовая глубина                          : 8 бит
Тип развёртки                            : Прогрессивная
Бит/(Пиксели*Кадры)                      : 0.103
Размер потока                            : 3,04 Гбайт (91%)
Заголовок                                : ZHIZN_VPEREDI_WEB_DL_1080p-BLUEBIRD
Язык                                     : English
Default                                  : Да
Forced                                   : Нет
Цветовой диапазон                        : Limited
Основные цвета                           : BT.709
Характеристики трансфера                 : BT.709
Коэффициенты матрицы                     : BT.709

Аудио
Идентификатор                            : 2
Формат                                   : AC-3
Формат/Информация                        : Audio Coding 3
Параметр Endianness формата              : Big
Идентификатор кодека                     : A_AC3
Продолжительность                        : 1 ч. 25 м.
Вид битрейта                             : Постоянный
Битрейт                                  : 384 Кбит/сек
Каналы                                   : 6 каналов
Расположение каналов                     : Front: L C R, Side: L R, LFE
Частота                                  : 48,0 КГц
Частота кадров                           : 31,250 кадров/сек (1536 spf)
Битовая глубина                          : 16 бит
Метод сжатия                             : С потерями
Размер потока                            : 234 Мбайт (7%)
Заголовок                                : [ORIGINAL] DD 5.1 @ 384 kbps
Язык                                     : Russian
Default                                  : Да
Forced                                   : Нет

Меню
00:00:00.000                             : en:Глава 1
00:05:48.375                             : en:Глава 2
00:13:01.208                             : en:Глава 3
00:19:47.874                             : en:Глава 4
00:28:41.915                             : en:Глава 5
00:36:57.456                             : en:Глава 6
00:42:39.081                             : en:Глава 7
00:49:04.789                             : en:Глава 8
00:53:59.455                             : en:Глава 9
01:01:06.455                             : en:Глава 10
01:07:50.330                             : en:Глава 11
01:14:56.205                             : en:Глава 12



Скриншоты:
[+] Всего файлов в раздаче - 1:
ZHIZN_VPEREDI_WEB_DL_1080p-BLUEBIRD.mkv3.34 GB

Текущая раздача:
ДатаКомментарии    РазмерПиры
2017-12-01 U Жизнь впереди (2017) WEB-DL 1080p | iTunes 3.34 GB ↑ 475 ↓ 349

Показать еще раздачи по запросу жизнь:
2017-12-11 U Подари мне жизнь [01-04 из 04] (2017) SATRip-AVC от Files-x 2.35 GB ↑ 41 ↓ 25
2017-12-11 U Подари мне жизнь [01-04 из 04] (2017) WEB-DLRip-AVC от Files-x 2.49 GB ↑ 33 ↓ 26
2017-12-11 U Подари мне жизнь [01-04 из 04] (2017) WEB-DLRip от Files-x 2.34 GB ↑ 74 ↓ 45
2017-12-08 U Наука и жизнь №12 (декабрь) (2017) PDF 77.15 MB ↑ 100 ↓ 15
2017-11-26 U 24 часа на жизнь / 24 Hours to Live (2017) WEB-DLRip от Scarabey | iTunes 1.45 GB ↑ 206 ↓ 67
2017-11-24 U 24 часа на жизнь / 24 Hours to Live (2017) WEB-DLRip-AVC от ExKinoRay | iTunes 746.61 MB ↑ 153 ↓ 44
2017-11-24 U 24 часа на жизнь / 24 Hours to Live (2017) WEB-DLRip от MegaPeer | iTunes 745.56 MB ↑ 203 ↓ 86

Отзывы
Зарегистрируйтесь чтобы добавить комментарий.
Обратная связь
Copyleft ©