↑↓Torrent.by
Поиск
Логин: Регистрация
Пароль: Восстановить пароль
Загрузка...

Я (2009) DVDRip-AVC

Скачать ya-2009-dvdrip-avc.torrent
U Магнитная ссылка Размер: 1.40 GB Раздают: 41 Качают: 27 Добавлен: 2017-12-03 08:26:45
Я (2009) DVDRip-AVC

Название: Я
Год выхода: 2009
Жанр: Драма
Режиссер: Игорь Волошин
В ролях: Артур Смольянинов, Андрей Хабаров, Оксана Акиньшина, Алексей Горбунов, Пётр Зайченко, Мария Шалаева, Анна Михалкова, Михаил Евланов, Алексей Полуян, Владимир Сороколита

О фильме:
Молодой человек собирается откосить от армии в районной психбольнице. Но игра с системой затягивается — пройдя принудительное лечение, герой с белым билетом на руках выбирается на свободу. Через три этапа жизни — его детство, отрочество и юность — на экране проходит жизнь целого потерянного поколения конца советской эпохи.

Выпущено: Россия /, VVP Alians
Продолжительность: 01:28:46
Язык: Русский

Файл
Формат: MKV
Качество: DVDRip AVC
Видео: MPEG-4 AVC, 1803 Кбит/с, 720x436@1024x436
Аудио: Русский (AC3, 6 ch, 448 Кбит/с)

Семпл

Релиз:


[+] MI:

Общее
Уникальный идентификатор : 185267042143120672495096027154931219105 (0x8B612269298A26A8A92534CEE8D37AA1)
Полное имя : F:Раздача HDYa.2009.DVDRip AVC.mkv
Формат : Matroska
Версия формата : Version 2
Размер файла : 1,40 Гбайт
Продолжительность : 1 ч. 28 м.
Общий поток : 2253 Кбит/сек
Дата кодирования : UTC 2014-03-26 11:38:24
Программа кодирования : mkvmerge v5.0.1 ('Es ist Sommer') built on Oct 24 2011 19:45:06
Библиотека кодирования : libebml v1.2.2 + libmatroska v1.3.0

Видео
Идентификатор : 1
Формат : AVC
Формат/Информация : Advanced Video Codec
Профиль формата : High@L4.1
Параметр CABAC формата : Да
Параметр ReFrames формата : 8 кадров
Идентификатор кодека : V_MPEG4/ISO/AVC
Продолжительность : 1 ч. 28 м.
Битрейт : 1803 Кбит/сек
Ширина : 720 пикселей
Высота : 436 пикселей
Соотношение сторон : 2,35:1
Режим частоты кадров : Постоянный
Частота кадров : 25,000 кадров/сек
Цветовое пространство : YUV
Субдискретизация насыщенности : 4:2:0
Битовая глубина : 8 бит
Тип развёртки : Прогрессивная
Бит/(Пиксели*Кадры) : 0.230
Размер потока : 1,09 Гбайт (78%)
Библиотека кодирования : x264 core 119 r2106 07efeb4
Настройки программы : cabac=1 / ref=8 / deblock=1:-1:-1 / analyse=0x3:0x133 / me=umh / subme=7 / psy=1 / psy_rd=1.00:0.10 / mixed_ref=1 / me_range=32 / chroma_me=1 / trellis=2 / 8x8dct=1 / cqm=0 / deadzone=21,11 / fast_pskip=1 / chroma_qp_offset=-3 / threads=6 / sliced_threads=0 / nr=0 / decimate=1 / interlaced=0 / bluray_compat=0 / constrained_intra=0 / bframes=8 / b_pyramid=2 / b_adapt=2 / b_bias=0 / direct=3 / weightb=1 / open_gop=0 / weightp=2 / keyint=250 / keyint_min=25 / scenecut=40 / intra_refresh=0 / rc_lookahead=40 / rc=2pass / mbtree=1 / bitrate=1803 / ratetol=1.0 / qcomp=0.60 / qpmin=10 / qpmax=51 / qpstep=4 / cplxblur=20.0 / qblur=0.5 / ip_ratio=1.40 / aq=2:1.00
Default : Да
Forced : Нет

Аудио
Идентификатор : 2
Формат : AC-3
Формат/Информация : Audio Coding 3
Расширение режима : CM (complete main)
Параметр Endianness формата : Big
Идентификатор кодека : A_AC3
Продолжительность : 1 ч. 28 м.
Вид битрейта : Постоянный
Битрейт : 448 Кбит/сек
Каналы : 6 каналов
Расположение каналов : Front: L C R, Side: L R, LFE
Частота : 48,0 КГц
Битовая глубина : 16 бит
Метод сжатия : С потерями
Размер потока : 284 Мбайт (20%)
Default : Да
Forced : Нет



[+] Награды:

Кинотавр, 2009 год
Номинации (1):
Главный приз



Скриншоты:
[+] Всего файлов в раздаче - 1:
Ya.2009.DVDRip AVC.mkv1.40 GB

Текущая раздача:
ДатаКомментарии    РазмерПиры
2017-12-03 U Я (2009) DVDRip-AVC 1.40 GB ↑ 41 ↓ 27

Показать еще раздачи по запросу dvdrip:
Вчера U Короли солнца / Kings of the Sun (1963) DVDRip-AVC от k.e.n & MegaPeer | P 1.46 GB ↑ 61 ↓ 17
2017-12-13 U Петля Ориона (1980) DVDRip-AVC от KORSAR 1.49 GB ↑ 32 ↓ 19
2017-12-13 U Лабиринт страстей / Laberinto de pasiones (1982) DVDRip | P 1.45 GB ↑ 35 ↓ 16
2017-12-13 U Макунайма / Macunaíma (1969) DVDRip | A 1.37 GB ↑ 35 ↓ 12
2017-12-12 U После смерти / Postmortem (1998) DVDRip-AVC | P2, A 1.46 GB ↑ 44 ↓ 35
2017-12-12 U Queen - News Of The World [40th Anniversary Edition] (2017) DVDRip от Лумина 885.54 MB ↑ 38 ↓ 18
2017-12-12 U Отель "Кляйнхофф" / Kleinhoff Hotel (1977) DVDRip | A 1.46 GB ↑ 41 ↓ 20

Отзывы
Зарегистрируйтесь чтобы добавить комментарий.
Обратная связь
Copyleft ©