↑↓Torrent.by
Поиск
Логин: Регистрация
Пароль: Восстановить пароль
Загрузка...

Телохранитель киллера / The Hitman's Bodyguard (2017) BDRip 1080p от OlLanDGroup | CAN Transfer | D, A | Лицензия

Скачать telohranitel-killera-the-hitman-s-bodyguard-2017-bdrip-1080p-ot-ollandgroup-can-transfer-d-a-licenziya.torrent
U Магнитная ссылка Размер: 13.35 GB Раздают: 53 Качают: 25 Добавлен: 2017-12-03 08:46:43
Телохранитель киллера / The Hitman's Bodyguard (2017) BDRip 1080p от OlLanDGroup | CAN Transfer | D, A | Лицензия

Название: Телохранитель киллера
Оригинальное название: The Hitman's Bodyguard
Год выпуска: 2017
Жанр:  Боевик, комедия
Выпущено: США, Китай, Болгария, Нидерланды, Campbell Grobman Films, Cristal Pictures, East Light Media, Millennium Films
Режиссер: Патрик Хьюз
В ролях: Райан Рейнольдс, Сэмюэл Л. Джексон, Элоди Юнг, Сальма Хайек, Гэри Олдман, Жоаки де Алмейда, Юрий Колокольников, Тине Жустра, Сэм Хэзелдайн, Ричард Э. Грант, Род Халлетт, Нуртье Херлар, Михаил Горевой, Кирсти Митчелл, Крис Брейзиер, Алан МакКенна, Жозефин де ла Буме, Ори Феффер, Александр Меркюри, Майкл Джинкс, Джастин Пирсон, Оуэн Дэвис

О фильме: Майкл Брюс был телохранителем высшего класса до первого убитого клиента. Теперь же он вынужден экранировать тела физических лиц в каких-то европейских выселках за умеренную плату. Майклу выпадает шанс вернуться в элиту: для этого всего-то нужно сопроводить лучшего смертельного врага, известного киллера Дариуса Кинкейда, из английского Ковентри до резиденции Международного суда ООН в Гааге и не умереть вместе с подопечным по дороге. Проблема даже не в том, что Дариус выступает главным свидетелем обвинения в деле восточноевропейского президента-диктатора Духовича, обвиняемого в массовом геноциде жителей своей страны и махинациях с картошкой. И не в том, что до суда они должны добраться в течение 24 часов, продравшись сквозь строй озлобленных мужиков с автоматами. В силу своих профессиональных деформаций, телохранитель и киллер питают друг к другу самые "нежные чувства" и всерьез рискуют убить, расчленить и сжечь партнера в порыве взаимной страсти.

Качество: BDRip (1080p)
Видео: MPEG-4 AVC, 10155 Kбит/с, 1920x804, 23.976 кадр/с
Аудио: Русский (AC3, 6 ch, 640 Кбит/с), (DTS, 6 ch, 1509 Кбит/с), украинский (AC3, 2 ch, 192 Кбит/с), английский (DTS, 6 ch, 1509 Кбит/с)
Размер: 13.35 ГБ
Продолжительность: 01:58:19
Перевод: Дублированный, авторский
Субтитры: Русские, английские

Сохранены оригинальные чаптеры как на Blu-Ray.
Озвучивание - (Лицензия)
Видеоряд, без английского хардсаба.

Релиз:  Rip by:


[+] Аудио

Аудио #01: 48 kHz, AC3, 5.1, 640 Kbps | Дублированный | RUS |
Аудио #02: 48 kHz, AC3, 5.1, 640 Kbps | Авторский (Чадов) | RUS | Внимание! присутствует ненормативная лексика
Аудио #03: 48 kHz, AC3, 2, 192 Kbps | Дублированный | UKR |
Аудио #04: 48 kHz, DTS, 5.1, 1509 Kbps | Дублированный | RUS |
Аудио #05: 48 kHz, DTS, 5.1, 1509 Kbps | Авторский (Чадов) | RUS | Внимание! присутствует ненормативная лексика
Аудио #06: 48 kHz, DTS, 5.1, 1509 Kbps | Оригинал | ENG |



[+] x264

x264 [info]: frame I:1240  Avg QP:14.70  size:216479
x264 [info]: frame P:44877 Avg QP:18.05  size: 95098
x264 [info]: frame B:124078 Avg QP:19.00  size: 36013
x264 [info]: consecutive B-frames:  6.6%  5.5% 10.4% 14.6%  8.2% 51.4%  1.9%  0.2%  0.7%  0.1%  0.3%
x264 [info]: mb I  I16..4: 16.5% 69.1% 14.4%
x264 [info]: mb P  I16..4:  2.0% 24.7%  1.6%  P16..4: 24.6% 29.6%  8.9%  1.1%  0.1%    skip: 7.5%
x264 [info]: mb B  I16..4:  0.3%  2.0%  0.2%  B16..8: 36.4% 26.0%  4.4%  direct: 6.4%  skip:24.3%  L0:45.8% L1:42.8% BI:11.3%
x264 [info]: 8x8 transform intra:84.5% inter:59.0%
x264 [info]: direct mvs  spatial:98.3% temporal:1.7%
x264 [info]: coded y,uvDC,uvAC intra: 88.2% 89.0% 71.2% inter: 35.0% 41.4% 19.9%
x264 [info]: i16 v,h,dc,p: 37%  9% 10% 43%
x264 [info]: i8 v,h,dc,ddl,ddr,vr,hd,vl,hu:  9%  8% 11% 10% 13% 12% 13% 11% 13%
x264 [info]: i4 v,h,dc,ddl,ddr,vr,hd,vl,hu: 23% 11% 11%  6% 10% 10% 11%  8% 10%
x264 [info]: i8c dc,h,v,p: 48% 23% 15% 15%
x264 [info]: Weighted P-Frames: Y:1.9% UV:1.2%
x264 [info]: ref P L0: 51.8% 10.9% 20.8%  8.0%  7.3%  1.3%  0.0%
x264 [info]: ref B L0: 77.9% 15.3%  5.2%  1.7%
x264 [info]: ref B L1: 94.3%  5.7%
x264 [info]: kb/s:10148.10



[+] Инфо-файл

Общее
Уникальный идентификатор                 : 209830101077522941645756767868881311648 (0x9DDBCEB7A87923A4AD28FA19652D97A0)
Полное имя                               : D:ЗагрузкиThe.Hitman'. BodyGuard.2017.x264.BDRip.(1080p).OlLanDGroup.mkv
Формат                                   : Matroska
Версия формата                           : Version 2
Размер файла                             : 13,3 Гбайт
Продолжительность                        : 1 ч. 58 м.
Общий поток                              : 16,2 Мбит/сек
Название фильма                          : Телохранитель киллера.2017.Rip by: ollan
Дата кодирования                         : UTC 2017-12-02 10:45:32
Программа кодирования                    : mkvmerge v5.6.0 ('Kenya Kane') built on May 27 2012 16:44:04
Библиотека кодирования                   : libebml v1.2.3 + libmatroska v1.3.0
Attachements                             : Cover -The.Hitman'. BodyGuard.png

Видео
Идентификатор                            : 1
Формат                                   : AVC
Формат/Информация                        : Advanced Video Codec
Профиль формата                          : High@L4.1
Параметр CABAC формата                   : Да
Параметр ReFrames формата                : 5 кадров
Идентификатор кодека                     : V_MPEG4/ISO/AVC
Продолжительность                        : 1 ч. 58 м.
Битрейт                                  : 10,2 Мбит/сек
Ширина                                   : 1920 пикселей
Высота                                   : 804 пикселя
Соотношение сторон                       : 2,40:1
Режим частоты кадров                     : Постоянный
Частота кадров                           : 23,976 (24000/1001) кадра/сек
Цветовое пространство                    : YUV
Субдискретизация насыщенности            : 4:2:0
Битовая глубина                          : 8 бит
Тип развёртки                            : Прогрессивная
Бит/(Пиксели*Кадры)                      : 0.274
Размер потока                            : 8,12 Гбайт (61%)
Библиотека кодирования                   : x264 core 146 r2538 121396c
Настройки программы                      : cabac=1 / ref=5 / deblock=1:-2:-3 / analyse=0x3:0x133 / me=umh / subme=11 / psy=1 / psy_rd=0.90:0.05 / mixed_ref=1 / me_range=64 / chroma_me=1 / trellis=2 / 8x8dct=1 / cqm=0 / deadzone=21,11 / fast_pskip=0 / chroma_qp_offset=-3 / threads=12 / lookahead_threads=3 / sliced_threads=0 / nr=0 / decimate=0 / interlaced=0 / bluray_compat=0 / constrained_intra=0 / bframes=10 / b_pyramid=2 / b_adapt=2 / b_bias=0 / direct=3 / weightb=1 / open_gop=0 / weightp=2 / keyint=240 / keyint_min=23 / scenecut=40 / intra_refresh=0 / rc_lookahead=40 / rc=2pass / mbtree=0 / bitrate=10155 / ratetol=1.0 / qcomp=0.60 / qpmin=0 / qpmax=69 / qpstep=4 / cplxblur=20.0 / qblur=0.5 / vbv_maxrate=50000 / vbv_bufsize=62500 / nal_hrd=none / filler=0 / ip_ratio=1.40 / pb_ratio=1.30 / aq=1:1.00
Язык                                     : English
Default                                  : Да
Forced                                   : Нет

Аудио #1
Идентификатор                            : 2
Формат                                   : AC-3
Формат/Информация                        : Audio Coding 3
Расширение режима                        : CM (complete main)
Параметр Endianness формата              : Big
Идентификатор кодека                     : A_AC3
Продолжительность                        : 1 ч. 58 м.
Вид битрейта                             : Постоянный
Битрейт                                  : 640 Кбит/сек
Каналы                                   : 6 каналов
Расположение каналов                     : Front: L C R, Side: L R, LFE
Частота                                  : 48,0 КГц
Частота кадров                           : 31,250 кадров/сек (1536 spf)
Метод сжатия                             : С потерями
Размер потока                            : 542 Мбайт (4%)
Заголовок                                : Дублированный (Лицензия)
Язык                                     : Russian
Default                                  : Да
Forced                                   : Нет

Аудио #2
Идентификатор                            : 3
Формат                                   : AC-3
Формат/Информация                        : Audio Coding 3
Расширение режима                        : CM (complete main)
Параметр Endianness формата              : Big
Идентификатор кодека                     : A_AC3
Продолжительность                        : 1 ч. 58 м.
Вид битрейта                             : Постоянный
Битрейт                                  : 640 Кбит/сек
Каналы                                   : 6 каналов
Расположение каналов                     : Front: L C R, Side: L R, LFE
Частота                                  : 48,0 КГц
Частота кадров                           : 31,250 кадров/сек (1536 spf)
Метод сжатия                             : С потерями
Размер потока                            : 542 Мбайт (4%)
Заголовок                                : Авторский (Чадов)
Язык                                     : Russian
Default                                  : Нет
Forced                                   : Нет

Аудио #3
Идентификатор                            : 4
Формат                                   : AC-3
Формат/Информация                        : Audio Coding 3
Расширение режима                        : CM (complete main)
Параметр Endianness формата              : Big
Идентификатор кодека                     : A_AC3
Продолжительность                        : 1 ч. 58 м.
Вид битрейта                             : Постоянный
Битрейт                                  : 192 Кбит/сек
Каналы                                   : 2 канала
Расположение каналов                     : Front: L R
Частота                                  : 48,0 КГц
Частота кадров                           : 31,250 кадров/сек (1536 spf)
Метод сжатия                             : С потерями
Размер потока                            : 162 Мбайт (1%)
Заголовок                                : Дублированный
Язык                                     : Ukrainian
Default                                  : Нет
Forced                                   : Нет

Аудио #4
Идентификатор                            : 5
Формат                                   : DTS
Формат/Информация                        : Digital Theater Systems
Режим                                    : 16
Параметр Endianness формата              : Big
Идентификатор кодека                     : A_DTS
Продолжительность                        : 1 ч. 58 м.
Вид битрейта                             : Постоянный
Битрейт                                  : 1509 Кбит/сек
Каналы                                   : 6 каналов
Расположение каналов                     : Front: L C R, Side: L R, LFE
Частота                                  : 48,0 КГц
Частота кадров                           : 93,750 кадра/сек (512 spf)
Битовая глубина                          : 24 бит
Метод сжатия                             : С потерями
Размер потока                            : 1,25 Гбайт (9%)
Заголовок                                : Дублированный (Лицензия)
Язык                                     : Russian
Default                                  : Нет
Forced                                   : Нет

Аудио #5
Идентификатор                            : 6
Формат                                   : DTS
Формат/Информация                        : Digital Theater Systems
Режим                                    : 16
Параметр Endianness формата              : Big
Идентификатор кодека                     : A_DTS
Продолжительность                        : 1 ч. 58 м.
Вид битрейта                             : Постоянный
Битрейт                                  : 1509 Кбит/сек
Каналы                                   : 6 каналов
Расположение каналов                     : Front: L C R, Side: L R, LFE
Частота                                  : 48,0 КГц
Частота кадров                           : 93,750 кадра/сек (512 spf)
Битовая глубина                          : 24 бит
Метод сжатия                             : С потерями
Размер потока                            : 1,25 Гбайт (9%)
Заголовок                                : Авторский (Чадов)
Язык                                     : Russian
Default                                  : Нет
Forced                                   : Нет

Аудио #6
Идентификатор                            : 7
Формат                                   : DTS
Формат/Информация                        : Digital Theater Systems
Режим                                    : 16
Параметр Endianness формата              : Big
Идентификатор кодека                     : A_DTS
Продолжительность                        : 1 ч. 58 м.
Вид битрейта                             : Постоянный
Битрейт                                  : 1509 Кбит/сек
Каналы                                   : 6 каналов
Расположение каналов                     : Front: L C R, Side: L R, LFE
Частота                                  : 48,0 КГц
Частота кадров                           : 93,750 кадра/сек (512 spf)
Битовая глубина                          : 24 бит
Метод сжатия                             : С потерями
Размер потока                            : 1,25 Гбайт (9%)
Язык                                     : English
Default                                  : Нет
Forced                                   : Нет

Текст #1
Идентификатор                            : 8
Формат                                   : UTF-8
Идентификатор кодека                     : S_TEXT/UTF8
Идентификатор кодека/Информация          : UTF-8 Plain Text
Заголовок                                : Full
Язык                                     : Russian
Default                                  : Нет
Forced                                   : Нет

Текст #2
Идентификатор                            : 9
Формат                                   : UTF-8
Идентификатор кодека                     : S_TEXT/UTF8
Идентификатор кодека/Информация          : UTF-8 Plain Text
Заголовок                                : Forced
Язык                                     : English
Default                                  : Нет
Forced                                   : Нет

Текст #3
Идентификатор                            : 10
Формат                                   : UTF-8
Идентификатор кодека                     : S_TEXT/UTF8
Идентификатор кодека/Информация          : UTF-8 Plain Text
Заголовок                                : Full
Язык                                     : English
Default                                  : Нет
Forced                                   : Нет

Меню
00:00:00.000                             : en:Chapter 01
00:18:39.992                             : en:Chapter 02
00:37:00.885                             : en:Chapter 03
00:51:42.389                             : en:Chapter 04
01:03:32.809                             : en:Chapter 05
01:20:06.676                             : en:Chapter 06
01:35:08.868                             : en:Chapter 07
01:51:25.220                             : en:Chapter 08
01:58:18.341                             : en:Chapter 09




Скриншоты:
[+] Всего файлов в раздаче - 1:

Текущая раздача:
ДатаКомментарии    РазмерПиры
2017-12-03 U Телохранитель киллера / The Hitman's Bodyguard (2017) BDRip 1080p от OlLanDGroup | CAN Transfer | D, A | Лицензия 13.35 GB ↑ 53 ↓ 25

Показать еще раздачи по запросу телохранитель:
2017-12-03 U Телохранитель киллера / The Hitman's Bodyguard (2017) BDRip от MegaPeer | D, A | Лицензия 2.18 GB ↑ 80 ↓ 28
2017-12-03 U Телохранитель киллера / The Hitman's Bodyguard (2017) HDRip-AVC от ExKinoRay | D, A | Лицензия 2.68 GB ↑ 70 ↓ 37
2017-12-03 U Телохранитель киллера / The Hitman's Bodyguard (2017) BDRip от ExKinoRay | Лицензия 2.18 GB ↑ 154 ↓ 26
2017-12-03 U Телохранитель киллера / The Hitman's Bodyguard (2017) BDRip от ExKinoRay | Лицензия 1.46 GB ↑ 78 ↓ 11
2017-12-03 U Телохранитель киллера / The Hitman's Bodyguard (2017) HDRip от Scarabey | Лицензия 1.45 GB ↑ 246 ↓ 60
2017-12-02 U Телохранитель киллера / The Hitman's Bodyguard (2017) HDRip-AVC от ExKinoRay | D, A | Лицензия 2К744.74 MB ↑ 66 ↓ 12
2017-12-02 U Телохранитель киллера / The Hitman's Bodyguard (2017) HDRip от MegaPeer | Лицензия 751.52 MB ↑ 52 ↓ 3

Отзывы
Зарегистрируйтесь чтобы добавить комментарий.
Обратная связь
Copyleft ©