↑↓Torrent.by
Поиск
Логин: Регистрация
Пароль: Восстановить пароль
Загрузка...

Джунгли / Jungle (2017) BDRip-AVC от ExKinoRay | iTunes

Скачать dzhungli-jungle-2017-bdrip-avc-ot-exkinoray-itunes.torrent
U Магнитная ссылка Размер: 746.33 MB Раздают: 90 Качают: 61 Добавлен: 2017-12-04 13:35:10
Джунгли / Jungle (2017) BDRip-AVC от ExKinoRay | iTunes

Название: Джунгли
Оригинальное название: Jungle
Год выпуска: 2017
Жанр:  триллер, драма, приключения
Режиссер: Грег МакЛин
В ролях: Дэниэл Рэдклифф, Томас Кречман, Алекс Расселл, Джоэль Джексон, Лили Салливан, Ясмин Кассим, Яцек Коман, Луис Лопез, Энджи Милликен, Пэрис Молетти

О фильме :
Группа друзей отправляется в непроходимые джунгли Боливии в поисках экзотических впечатлений. Однако когда проводник исчезает и приятели остаются один на один с дикой природой, путешествие, начавшееся как забавное приключение, превращается в борьбу за выживание.

Страна: Австралия, Колумбия
Студия: Babber Films, Cutting Edge Group, Screen Australia
Продолжительность: 01:55:22
Перевод: Дубляж [iTunes]

Файл
Формат: MKV
Качество: BDRip-AVC (BDRemux 1080p)
Видео: MPEG-4 AVC, 768x320, ~ 826 Кбит/с
Аудио:  AAC-LC, 2 ch, ~ 80 Кбит/с
Субтитры: Русские, английские

Релиз:


[+] MI
Общее
Уникальный идентификатор : 213847802973057420663954689081966070018 (0xA0E196B6ECF4CF5B8995EF3A55040902)
Полное имя : D:MOVIESJungle_2017.ExKinoRay.mkv
Формат : Matroska
Версия формата : Version 4 / Version 2
Размер файла : 746 Мбайт
Продолжительность : 1 ч. 55 м.
Общий поток : 903 Кбит/сек
Название фильма : Jungle 2017 from ExKinoRay
Дата кодирования : UTC 2017-12-04 07:04:55
Программа кодирования : mkvmerge v15.0.0 ('Duel with the Devil') 64-bit
Библиотека кодирования : libebml v1.3.5 + libmatroska v1.4.5

Видео
Идентификатор : 1
Формат : AVC
Формат/Информация : Advanced Video Codec
Профиль формата : High@L4.1
Параметр CABAC формата : Да
Параметр RefFrames формата : 10 кадров
Идентификатор кодека : V_MPEG4/ISO/AVC
Продолжительность : 1 ч. 55 м.
Битрейт : 826 Кбит/сек
Ширина : 768 пикселей
Высота : 320 пикселей
Соотношение сторон : 2,40:1
Режим частоты кадров : Постоянный
Частота кадров : 23,976 (24000/1001) кадра/сек
Цветовое пространство : YUV
Субдискретизация насыщенности : 4:2:0
Битовая глубина : 8 бит
Тип развёртки : Прогрессивная
Бит/(Пиксели*Кадры) : 0.140
Размер потока : 678 Мбайт (91%)
Библиотека кодирования : x264 core 152 r2851 ba24899
Настройки программы : cabac=1 / ref=10 / deblock=1:-3:-3 / analyse=0x3:0x133 / me=umh / subme=11 / psy=1 / psy_rd=1.00:0.07 / mixed_ref=1 / me_range=32 / chroma_me=1 / trellis=2 / 8x8dct=1 / cqm=0 / deadzone=21,11 / fast_pskip=0 / chroma_qp_offset=-3 / threads=6 / lookahead_threads=1 / sliced_threads=0 / nr=0 / decimate=0 / interlaced=0 / bluray_compat=0 / constrained_intra=0 / bframes=10 / b_pyramid=2 / b_adapt=2 / b_bias=0 / direct=3 / weightb=1 / open_gop=0 / weightp=2 / keyint=240 / keyint_min=23 / scenecut=40 / intra_refresh=0 / rc_lookahead=40 / rc=2pass / mbtree=0 / bitrate=826 / ratetol=1.0 / qcomp=0.60 / qpmin=0 / qpmax=69 / qpstep=4 / cplxblur=20.0 / qblur=0.5 / vbv_maxrate=50000 / vbv_bufsize=62500 / nal_hrd=none / filler=0 / ip_ratio=1.40 / pb_ratio=1.30 / aq=1:1.00
Default : Да
Forced : Нет

Аудио
Идентификатор : 2
Формат : AAC
Формат/Информация : Advanced Audio Codec
Профиль формата : LC
Идентификатор кодека : A_AAC
Продолжительность : 1 ч. 55 м.
Битрейт : 80,0 Кбит/сек
Каналы : 2 канала
Расположение каналов : Front: L R
Частота : 48,0 КГц
Частота кадров : 46,875 кадров/сек (1024 SPF)
Метод сжатия : С потерями
Задержка видео : 9 мс.
Размер потока : 66,1 Мбайт (9%)
Default : Да
Forced : Нет

Текст #1
Идентификатор : 3
Формат : UTF-8
Идентификатор кодека : S_TEXT/UTF8
Идентификатор кодека/Информация : UTF-8 Plain Text
Продолжительность : 1 ч. 49 м.
Битрейт : 63 бит/сек
ElementCount : 1102
Размер потока : 51,0 Кбайт (0%)
Заголовок : Full
Язык : Russian
Default : Нет
Forced : Нет

Текст #2
Идентификатор : 4
Формат : UTF-8
Идентификатор кодека : S_TEXT/UTF8
Идентификатор кодека/Информация : UTF-8 Plain Text
Продолжительность : 1 ч. 46 м.
Битрейт : 33 бит/сек
ElementCount : 835
Размер потока : 26,5 Кбайт (0%)
Заголовок : Full
Язык : Russian
Default : Нет
Forced : Нет

Меню
00:00:00.000 : en:00:00:00.000
00:09:58.848 : en:00:09:58.848
00:19:46.602 : en:00:19:46.602
00:29:15.379 : en:00:29:15.379
00:38:54.415 : en:00:38:54.415
00:49:27.131 : en:00:49:27.131
00:58:30.507 : en:00:58:30.507
01:07:49.691 : en:01:07:49.691
01:16:25.331 : en:01:16:25.331
01:24:54.464 : en:01:24:54.464
01:32:54.611 : en:01:32:54.611
01:44:37.438 : en:01:44:37.438



Скриншоты:
[+] Всего файлов в раздаче - 1:
Jungle_2017.ExKinoRay.mkv746.33 MB

Текущая раздача:
ДатаКомментарии    РазмерПиры
2017-12-04 U Джунгли / Jungle (2017) BDRip-AVC от ExKinoRay | iTunes 746.33 MB ↑ 90 ↓ 61

Показать еще раздачи по запросу джунгли:
2017-12-09 U Джунгли / Jungle (2017) BDRip от ExKinoRay | iTunes 2.13 GB ↑ 254 ↓ 48
2017-12-08 U Джунгли / Jungle (2017) BDRip от ExKinoRay | iTunes 1.41 GB ↑ 260 ↓ 68
2017-12-05 U Джунгли / Jungle (2017) HDRip от MegaPeer | iTunes 746.87 MB ↑ 19 ↓ 23
2017-12-04 U Джунгли / Jungle (2017) HDRip от Kaztorrents | КПК | iTunes 442.02 MB ↑ 99 ↓ 15
2017-12-04 U Джунгли / Jungle (2017) BDRemux 1080p от ExKinoRay | D, A | iTunes 1К27.90 GB ↑ 115 ↓ 153
2014-12-06 U Джунгли / The Jungle (2013) WEB-DL 1080p | P 2.63 GB ↑ 232 ↓ 314
2014-02-23 U Добро пожаловать в джунгли / Welcome to the Jungle (2013) BDRip от HQCLUB 1.45 GB ↑ 495 ↓ 151

Отзывы
Зарегистрируйтесь чтобы добавить комментарий.
Обратная связь
Copyleft ©