↑↓Torrent.by
Поиск
Логин: Регистрация
Пароль: Восстановить пароль
Загрузка...

Калифорнийский дорожный патруль / CHIPS (2017) HDRip-AVC от ExKinoRay | iTunes

Скачать kaliforniyskiy-dorozhnyy-patrul-chips-2017-hdrip-avc-ot-exkinoray-itunes.torrent
U Магнитная ссылка Размер: 745.15 MB Раздают: 89 Качают: 43 Добавлен: 2017-12-04 18:08:56
Калифорнийский дорожный патруль / CHIPS (2017) HDRip-AVC от ExKinoRay | iTunes

Название: Калифорнийский дорожный патруль
Оригинальное название: CHIPS
Год выхода: 2017
Жанр:  Боевик, комедия, криминал
Режиссер: Дэкс Шепард
В ролях: Майкл Пенья, Дэкс Шепард, Джессика МакНэми, Адам Броди, Райан Хансен, Кристен Белл, Джэми Бок, Джастин Чатвин, Камерон Крус, Клэй Каллен

О фильме :
Полицейские Джон Бейкер и Фрэнк Пончерелло вместе патрулируют улицы города на мотоциклах. Получив по рации сигнал от диспетчера, они отправляются на место происшествия, чтобы спасти жителей города от очередного преступника или опасного нарушителя. Казалось бы, их работа давно стала рутиной и потеряла все прелести, но абсолютная противоположность характеров напарников и их разные предпочтения во всем нередко ставят главных героев в нелепые и даже комичные ситуации. Кроме того, регулярно подшучивая друг на другом, друзья не забывают и о взаимовыручке.

Страна: США
Студия: Primate Pictures, Warner Bros. Pictures
Продолжительность: 01:40:51
Перевод: Дублированный | iTunes

Файл
Формат: MKV
Качество: HDRip-AVC
Видео: MPEG-4 AVC, 752x424, ~ 955 Кбит/с
Аудио:  AAC-LC, 2 ch, ~ 76 Кбит/с

Релиз:


[+] MI
Общее
Уникальный идентификатор : 189503858577463534643214332219695705714 (0x8E911D96B9849D4197AE339E13CE2E72)
Полное имя : D:MOVIESChips.2017.ExKinoRay.mkv
Формат : Matroska
Версия формата : Version 4 / Version 2
Размер файла : 745 Мбайт
Продолжительность : 1 ч. 40 м.
Общий поток : 1032 Кбит/сек
Дата кодирования : UTC 2017-12-04 09:25:18
Программа кодирования : mkvmerge v15.0.0 ('Duel with the Devil') 64-bit
Библиотека кодирования : libebml v1.3.5 + libmatroska v1.4.5

Видео
Идентификатор : 1
Формат : AVC
Формат/Информация : Advanced Video Codec
Профиль формата : High@L4.1
Параметр CABAC формата : Да
Параметр RefFrames формата : 8 кадров
Идентификатор кодека : V_MPEG4/ISO/AVC
Продолжительность : 1 ч. 40 м.
Битрейт : 955 Кбит/сек
Ширина : 752 пикселя
Высота : 424 пикселя
Соотношение сторон : 16:9
Режим частоты кадров : Постоянный
Частота кадров : 23,976 (24000/1001) кадра/сек
Цветовое пространство : YUV
Субдискретизация насыщенности : 4:2:0
Битовая глубина : 8 бит
Тип развёртки : Прогрессивная
Бит/(Пиксели*Кадры) : 0.125
Размер потока : 689 Мбайт (92%)
Библиотека кодирования : x264 core 146 r2538 121396c
Настройки программы : cabac=1 / ref=8 / deblock=1:-2:-2 / analyse=0x3:0x113 / me=umh / subme=11 / psy=1 / psy_rd=1.00:0.20 / mixed_ref=1 / me_range=32 / chroma_me=1 / trellis=2 / 8x8dct=1 / cqm=0 / deadzone=21,11 / fast_pskip=1 / chroma_qp_offset=-3 / threads=6 / lookahead_threads=1 / sliced_threads=0 / nr=0 / decimate=0 / interlaced=0 / bluray_compat=0 / constrained_intra=0 / bframes=10 / b_pyramid=2 / b_adapt=2 / b_bias=0 / direct=3 / weightb=1 / open_gop=0 / weightp=2 / keyint=240 / keyint_min=23 / scenecut=40 / intra_refresh=0 / rc_lookahead=40 / rc=2pass / mbtree=0 / bitrate=955 / ratetol=1.0 / qcomp=0.60 / qpmin=0 / qpmax=69 / qpstep=4 / cplxblur=20.0 / qblur=0.5 / vbv_maxrate=50000 / vbv_bufsize=62500 / nal_hrd=none / filler=0 / ip_ratio=1.40 / pb_ratio=1.30 / aq=1:1.00
Default : Да
Forced : Нет

Аудио
Идентификатор : 2
Формат : AAC
Формат/Информация : Advanced Audio Codec
Профиль формата : LC
Идентификатор кодека : A_AAC
Продолжительность : 1 ч. 40 м.
Битрейт : 76,0 Кбит/сек
Каналы : 2 канала
Расположение каналов : Front: L R
Частота : 48,0 КГц
Частота кадров : 46,875 кадров/сек (1024 SPF)
Метод сжатия : С потерями
Задержка видео : 9 мс.
Размер потока : 54,9 Мбайт (7%)
Default : Да
Forced : Нет

Меню
00:00:00.000 : en:00:00:00.000
00:09:58.848 : en:00:09:58.848
00:19:46.602 : en:00:19:46.602
00:29:15.379 : en:00:29:15.379
00:38:54.415 : en:00:38:54.415
00:49:27.131 : en:00:49:27.131
00:58:30.507 : en:00:58:30.507
01:07:49.691 : en:01:07:49.691
01:16:25.331 : en:01:16:25.331
01:24:54.464 : en:01:24:54.464
01:32:54.611 : en:01:32:54.611
01:44:37.438 : en:01:44:37.438



Скриншоты:
[+] Всего файлов в раздаче - 1:
Chips.2017.ExKinoRay.mkv745.15 MB

Текущая раздача:
ДатаКомментарии    РазмерПиры
2017-12-04 U Калифорнийский дорожный патруль / CHIPS (2017) HDRip-AVC от ExKinoRay | iTunes 745.15 MB ↑ 89 ↓ 43

Показать еще раздачи по запросу калифорнийский:
2017-12-07 U Калифорнийский дорожный патруль / CHIPS (2017) BDRip от ExKinoRay | iTunes 1.41 GB ↑ 53 ↓ 22
2017-12-06 U Калифорнийский дорожный патруль / CHIPS (2017) BDRip 720p от HELLYWOOD | iTunes 5.71 GB ↑ 58 ↓ 59
2017-12-05 U Калифорнийский дорожный патруль / CHIPS (2017) BDRip-AVC от HELLYWOOD | iTunes 1.46 GB ↑ 67 ↓ 46
2017-12-05 U Калифорнийский дорожный патруль / CHIPS (2017) BDRip-AVC от HELLYWOOD | iTunes 2.86 GB ↑ 61 ↓ 62
2017-12-04 U Калифорнийский дорожный патруль / CHIPS (2017) BDRemux 1080p от ExKinoRay | D, A | iTunes 29.70 GB ↑ 57 ↓ 96
2017-12-04 U Калифорнийский дорожный патруль / CHIPS (2017) BDRip от MegaPeer | iTunes 745.49 MB ↑ 96 ↓ 50
2017-12-04 U Калифорнийский дорожный патруль / CHIPS (2017) BDRip 1080p | D, A | iTunes 11.64 GB ↑ 75 ↓ 77

Отзывы
Зарегистрируйтесь чтобы добавить комментарий.
Обратная связь
Copyleft ©