↑↓Torrent.by
Поиск
Логин: Регистрация
Пароль: Восстановить пароль
Загрузка...

Ведьмина служба доставки / Majo no Takkyuubin (1989) BDRip от Stranik 2.0 | D | P

Скачать vedmina-sluzhba-dostavki-majo-no-takkyuubin-1989-bdrip-ot-stranik-2-0-d-p.torrent
U Магнитная ссылка Размер: 1.69 GB Раздают: 127 Качают: 4 Добавлен: 2017-12-05 00:47:16
Ведьмина служба доставки / Majo no Takkyuubin (1989) BDRip от Stranik 2.0 | D | P



Название : Ведьмина служба доставки
Оригинальное название : Majo no Takkyuubin / Kiki's Delivery Service / 魔女の宅急便
Год выхода : 1989
Тип: Movie
Жанр : Приключения, комедия, драма, сказка
Режиссер : Хаяо Миядзаки
Роли озвучивали : Минами Такаяма, Рэй Сакума, Каппэй Ямагути, Кэйко Тода, Миэко Нобусава, Коити Миура, Харуко Като, Хироко Сэки, Юрико Футидзаки, Коити Ямадера

Описание : По правилам жизни ведьм, каждая из них, достигнув возраста 13-ти лет, должна найти город, где нет нечистой силы, и прожить в нем ровно год. Молодая ведьма (язык не поворачивается назвать её девочкой - ведьма всё-таки) Кики и ее котенок Дзидзи находят такой приморский городок, где и знакомится с добрым пекарем, который помогает ей начать собственное дело - Экстренную Службу Доставки. Работа знакомит Кики с множеством различных людей, предоставляя возможность обрести новых друзей и совершить массу всевозможных проделок.

Страна : Япония
Производство : GHIBLI
Продолжительность : 01:43:03
Перевод: Профессиональный (полное дублирование), Профессиональный (многоголосый, закадровый)

Автор рипа и релиза: Страник 2.0

Файл
Формат видео : AVI
Качество : BDRip (Исходник: BDRemux, спасибо TolstiyMob)

Видео: XviD, 720x390 (1.85:1), 1760 Кбит/с, 23.976 fps, 8bit
Аудио 1: Русский, AC3, 192 Кбит/с, 48.0 Hz, 2 ch (в составе контейнера) Дублированный [Ruscico/Сонотек]
Аудио 2: Русский, AC3, 192 Кбит/с, 48.0 Hz, 2 ch (в составе контейнера) Многоголосый [Киномания]
Аудио 3: Японский, AC3, 192 Кбит/с, 48.0 Hz, 2 ch (в составе контейнера)
Субтитры (srt): Русские [по дубляжу с R5 от студии Сонотек] (внешним файлом)
Субтитры (srt): Английские от Disney (внешним файлом)

Моя максимальная скорость отдачи 100КБ/c
Раздаю с 7:00 до 00:00 по Москве


[+] MediaInfo


  General
     Complete name : E:/Torrent_2/Majo no Takkyuubin (1989, XviD BDRip, RUS JAP+SUB) [Stranik 2.0]/Majo no Takkyuubin (1989, XviD BDRip, RUS JAP+SUB) [Stranik 2.0].avi
     Format : AVI
     Format/Info : Audio Video Interleave
     File size : 1.69 GiB
     Duration : 1h 43mn
     Overall bit rate : 2 355 Kbps
     Writing application : VirtualDubMod 1.5.10.3 (build 2550/release)
     Writing library : VirtualDubMod build 2550/release

  Video #0
     ID : 0
     Format : MPEG-4 Visual
     Format profile : Advanced Simple@L5
     Format settings, BVOP : 2
     Format settings, QPel : No
     Format settings, GMC : No warppoints
     Format settings, Matrix : Custom
     Codec ID : XVID
     Codec ID/Hint : XviD
     Duration : 1h 43mn
     Bit rate : 1 760 Kbps
     Width : 720 pixels
     Height : 390 pixels
     Display aspect ratio : 1.85:1
     Frame rate : 23.976 fps
     Color space : YUV
     Chroma subsampling : 4:2:0
     Bit depth : 8 bits
     Scan type : Progressive
     Compression mode : Lossy
     Bits/(Pixel*Frame) : 0.261
     Stream size : 1.27 GiB (75%)
     Writing library : XviD 67

  Audio #1
     ID : 1
     Format : AC-3
     Format/Info : Audio Coding 3
     Mode extension : CM (complete main)
     Format settings, Endianness : Big
     Codec ID : 2000
     Duration : 1h 43mn
     Bit rate mode : Constant
     Bit rate : 192 Kbps
     Channel(s) : 2 channels
     Channel positions : Front: L R
     Sampling rate : 48.0 KHz
     Bit depth : 16 bits
     Compression mode : Lossy
     Stream size : 141 MiB (8%)
     Alignment : Split accross interleaves
     Interleave, duration : 42 ms (1.00 video frame)
     Interleave, preload duration : 500 ms

  Audio #2
     ID : 2
     Format : AC-3
     Format/Info : Audio Coding 3
     Mode extension : CM (complete main)
     Format settings, Endianness : Big
     Codec ID : 2000
     Duration : 1h 43mn
     Bit rate mode : Constant
     Bit rate : 192 Kbps
     Channel(s) : 2 channels
     Channel positions : Front: L R
     Sampling rate : 48.0 KHz
     Bit depth : 16 bits
     Compression mode : Lossy
     Stream size : 142 MiB (8%)
     Alignment : Split accross interleaves
     Interleave, duration : 42 ms (1.00 video frame)
     Interleave, preload duration : 500 ms

  Audio #3
     ID : 3
     Format : AC-3
     Format/Info : Audio Coding 3
     Mode extension : CM (complete main)
     Format settings, Endianness : Big
     Codec ID : 2000
     Duration : 1h 43mn
     Bit rate mode : Constant
     Bit rate : 192 Kbps
     Channel(s) : 2 channels
     Channel positions : Front: L R
     Sampling rate : 48.0 KHz
     Bit depth : 16 bits
     Compression mode : Lossy
     Stream size : 142 MiB (8%)
     Alignment : Split accross interleaves
     Interleave, duration : 42 ms (1.00 video frame)
     Interleave, preload duration : 500 ms




Скриншоты:
[+] Всего файлов в раздаче - 3:
Majo no Takkyuubin (1989, XviD BDRip, RUS JAP+SUB) [Stranik 2.0].avi1.69 GB
Subs/Eng/Majo no Takkyuubin (1989, XviD BDRip, RUS JAP+SUB) [Stranik 2.0].srt71.22 kB
Subs/Rus/Majo no Takkyuubin (1989, XviD BDRip, RUS JAP+SUB) [Stranik 2.0].srt84.43 kB

Текущая раздача:
ДатаКомментарии    РазмерПиры
2017-12-05 U Ведьмина служба доставки / Majo no Takkyuubin (1989) BDRip от Stranik 2.0 | D | P 1.69 GB ↑ 127 ↓ 4

Похожие раздачи по запросу - ведьмина:
2013-10-28 U Ведьмина служба доставки / Kiki's Delivery Service / Majo no Takkyuubin (1989) DVDRip 7К1.36 GB ↑ 0 ↓ 3

Отзывы
Зарегистрируйтесь чтобы добавить комментарий.
Обратная связь
Copyleft ©