↑↓Torrent.by
Поиск
Логин: Регистрация
Пароль: Восстановить пароль
Загрузка...

Бойся своих желаний / Шкатулка / Wish Upon (2017) BDRip 720p | UNRATED | L

Скачать boysya-svoih-zhelaniy-shkatulka-wish-upon-2017-bdrip-720p-unrated-l.torrent
U Магнитная ссылка Размер: 2.94 GB Раздают: 95 Качают: 78 Добавлен: 2017-12-05 11:26:40
Бойся своих желаний / Шкатулка / Wish Upon (2017) BDRip 720p | UNRATED | L

Наименование: Бойся своих желаний / Шкатулка
Оригинальное наименование: Wish Upon
Произведено: США
Категория: ужасы, фэнтези, триллер
Режиссер постановщик: Джон Р. Леонетти
В главных ролях: Шерилин Фенн, Джои Кинг, Элизабет Рём, Райан Филипп, Шеннон Пёрсер, Реган Реворд, Ли Ги-хон, Сидни Парк, Элис Ли, Мишель Александр

О фильме: Тихая неудачница Клэр находит старинную шкатулку, которая исполняет желания. Теперь-то она расквитается со всеми, кто над ней смеялся. Но какую плату попросит шкатулка взамен?

Файл
Качество: BDRip 720p
Видео данные: MKV, 1280x536 (2:40:1), 23.976  fps,  4000 Кбит/с
Аудио данные: AC3, 2 ch, 640 Кбит/с
Перевод: Любительский многоголосый (GreenРай Studio)
Продолжительность: 01:31:50

Над релизом работали:
Состав дикторов: Ильдор Ахмеджанов и Анастасия Гайдаржи, Анна Кириленко
Руководитель проекта и координатор: Евгений Овчаренко
Организатор и координатор: Никита Марков
Пиар менеджер студии: Игорь Обухов
Техническая поддержка: Александр Методий
Релиз-группа: GreenРай Studio

ВНИМАНИЕ! Присутствует реклама!

Релиз:


[+] Mediainfo
General
Unique ID                   : 184271693330747552660472063803175878571 (0x8AA16FECEB876CD59D89DB77D56E3FAB)
Complete name               : D:ШкатулкаWish.Upon.2017.P.UNRATED.720p.mkv
Format                      : Matroska
Format version              : Version 4 / Version 2
File size                   : 2.94 GiB
Duration                    : 1 h 31 min
Overall bit rate mode       : Constant
Overall bit rate            : 4 594 kb/s
Encoded date                : UTC 2017-12-04 21:02:58
Writing application         : mkvmerge v8.3.0 ('Over the Horizon') 64bit
Writing library             : libebml v1.3.1 + libmatroska v1.4.2

Video
ID                          : 1
Format                      : AVC
Format/Info                 : Advanced Video Codec
Format profile              : Main@L3.1
Format settings, CABAC      : Yes
Format settings, ReFrames   : 3 frames
Codec ID                    : V_MPEG4/ISO/AVC
Duration                    : 1 h 31 min
Bit rate mode               : Constant
Bit rate                    : 4 000 kb/s
Width                       : 1 280 pixels
Height                      : 536 pixels
Display aspect ratio        : 2.40:1
Frame rate mode             : Constant
Frame rate                  : 23.976 (23976/1000) FPS
Standard                    : NTSC
Color space                 : YUV
Chroma subsampling          : 4:2:0
Bit depth                   : 8 bits
Scan type                   : Progressive
Bits/(Pixel*Frame)          : 0.243
Stream size                 : 2.52 GiB (86%)
Language                    : English
Default                     : Yes
Forced                      : No
Color range                 : Limited

Audio
ID                          : 2
Format                      : AC-3
Format/Info                 : Audio Coding 3
Mode extension              : CM (complete main)
Format settings, Endianness : Big
Codec ID                    : A_AC3
Duration                    : 1 h 31 min
Bit rate mode               : Constant
Bit rate                    : 640 kb/s
Channel(s)                  : 2 channels
Channel positions           : Front: L R
Sampling rate               : 48.0 kHz
Frame rate                  : 31.250 FPS (1536 spf)
Compression mode            : Lossy
Stream size                 : 419 MiB (14%)
Default                     : Yes
Forced                      : No



Скриншоты:
[+] Всего файлов в раздаче - 1:
Wish.Upon.2017.P.UNRATED.720p.mkv2.94 GB

Текущая раздача:
ДатаКомментарии    РазмерПиры
2017-12-05 U Бойся своих желаний / Шкатулка / Wish Upon (2017) BDRip 720p | UNRATED | L 2.94 GB ↑ 95 ↓ 78

Показать еще раздачи по запросу бойся:
2017-12-05 U Бойся своих желаний / Шкатулка / Wish Upon (2017) HDRip | UNRATED | L 1.37 GB ↑ 168 ↓ 128
2017-04-29 U Бойся / Be Afraid (2017) WEB-DLRip | L 1.37 GB ↑ 413 ↓ 5
2016-04-20 U Не бойся, я с тобой! 1919 (2013) HDTVRip от Шкипер 756.26 MB ↑ 147 ↓ 12
2016-04-18 U Не бойся, я с тобой! 1919 (2013) HDTVRip от GeneralFilm 751.41 MB ↑ 159 ↓ 44
2016-04-18 U Не бойся, я с тобой! 1919 (2013) HDTVRip 720p от MediaClub 3.40 GB ↑ 47 ↓ 5
2016-04-18 U Не бойся, я с тобой! 1919 (2013) HDTVRip от Files-x 1.56 GB ↑ 303 ↓ 170
2016-01-25 U Сергей Устинов - Не верь, не бойся, не проси, или Машина смерти (2016) MP3 449.49 MB ↑ 74 ↓ 8

Отзывы
Зарегистрируйтесь чтобы добавить комментарий.
Обратная связь
Copyleft ©