↑↓Torrent.by
Поиск
Логин: Регистрация
Пароль: Восстановить пароль
Загрузка...

Мозг Гиммлера зовется Гейдрихом / HHhH (2017) BDRip 720p | L

Скачать mozg-gimmlera-zovetsya-geydrihom-hhhh-2017-bdrip-720p-l.torrent
U Магнитная ссылка Размер: 3.81 GB Раздают: 68 Качают: 25 Добавлен: 2017-12-05 17:03:44
Мозг Гиммлера зовется Гейдрихом / HHhH (2017) BDRip 720p | L

Наименование: Мозг Гиммлера зовется Гейдрихом
Оригинальное наименование: HHhH
Произведено: Франция
Категория: боевик, триллер, военный, биография
Режиссер постановщик: Седрик Жименес
В главных ролях: Розамунд Пайк, Миа Васиковска, Джек О Коннелл, Джек Рейнор, Джейсон Кларк, Томас М. Райт, Энцо Чиленти, Джофф Белл, Ноа Джуп, Барри Атсма

О фильме: Фильм расскажет о стремительном восхождении Рейнхарда Гейдриха — государственного и политического деятеля нацистской Германии, одного из инициаторов «окончательного решения еврейского вопроса», который был убит Яном Кубишем и Йозефом Габчиком — чехословацкими диверсантами, агентами, специально подготовленными англичанами.

Файл
Качество: BDRip 720p
Видео данные: MKV, 1280x536 (2:40:1), 24.000  fps,  4000 Кбит/с
Аудио данные: AC3, 2 ch, 640 Кбит/с
Перевод: Любительский многоголосый (GreenРай Studio)
Продолжительность: 02:00:10

Над релизом работали:
Состав дикторов: Илья Кочетков и Анастасия Гайдаржи, Анна Кириленко
Руководитель проекта и координатор: Евгений Овчаренко
Организатор и координатор: Никита Марков
Пиар менеджер студии: Игорь Обухов
Техническая поддержка: Александр Методий
Релиз-группа: GreenРай Studio

ВНИМАНИЕ! Присутствует реклама!

Релиз:


[+] Mediainfo
General
Unique ID                   : 247073229968802731563250657388094768104 (0xB9E092BD95C9517BBD84AC41B78343E8)
Complete name               : D:Мозг ГимлераHHhH.2017.P.BDRip.720p.mkv
Format                      : Matroska
Format version              : Version 4 / Version 2
File size                   : 3.81 GiB
Duration                    : 2 h 0 min
Overall bit rate mode       : Constant
Overall bit rate            : 4 534 kb/s
Encoded date                : UTC 2017-12-04 18:30:40
Writing application         : mkvmerge v8.3.0 ('Over the Horizon') 64bit
Writing library             : libebml v1.3.1 + libmatroska v1.4.2

Video
ID                          : 1
Format                      : AVC
Format/Info                 : Advanced Video Codec
Format profile              : Main@L3.1
Format settings, CABAC      : Yes
Format settings, ReFrames   : 3 frames
Format settings, GOP        : M=4, N=15
Codec ID                    : V_MPEG4/ISO/AVC
Duration                    : 2 h 0 min
Bit rate mode               : Constant
Bit rate                    : 4 000 kb/s
Width                       : 1 280 pixels
Height                      : 536 pixels
Display aspect ratio        : 2.40:1
Frame rate mode             : Constant
Frame rate                  : 24.000 FPS
Standard                    : NTSC
Color space                 : YUV
Chroma subsampling          : 4:2:0
Bit depth                   : 8 bits
Scan type                   : Progressive
Bits/(Pixel*Frame)          : 0.243
Stream size                 : 3.27 GiB (86%)
Language                    : English
Default                     : Yes
Forced                      : No
Color range                 : Limited

Audio
ID                          : 2
Format                      : AC-3
Format/Info                 : Audio Coding 3
Mode extension              : CM (complete main)
Format settings, Endianness : Big
Codec ID                    : A_AC3
Duration                    : 2 h 0 min
Bit rate mode               : Constant
Bit rate                    : 640 kb/s
Channel(s)                  : 2 channels
Channel positions           : Front: L R
Sampling rate               : 48.0 kHz
Frame rate                  : 31.250 FPS (1536 spf)
Compression mode            : Lossy
Stream size                 : 551 MiB (14%)
Default                     : Yes
Forced                      : No



Скриншоты:
[+] Всего файлов в раздаче - 1:
HHhH.2017.P.BDRip.720p.mkv3.81 GB

Текущая раздача:
ДатаКомментарии    РазмерПиры
2017-12-05 U Мозг Гиммлера зовется Гейдрихом / HHhH (2017) BDRip 720p | L 3.81 GB ↑ 68 ↓ 25

Показать еще раздачи по запросу мозг:
2017-12-05 U Мозг Гиммлера зовется Гейдрихом / HHhH (2017) HDRip | L 1.46 GB ↑ 49 ↓ 54
2017-11-20 U Рок Дэвид - Мозг. Как использовать свои возможности по максимуму и без перегрузок (2017) MP3 968.44 MB ↑ 167 ↓ 20
2017-10-19 U Том Джексон - Мозг. Иллюстрированная история нейронауки (2017) PDF 84.28 MB ↑ 158 ↓ 17
2017-10-10 U Мозг Гиммлера зовется Гейдрихом / HHhH (2017) HDRip | L1 2.19 GB ↑ 72 ↓ 31
2017-10-10 U Мозг Гиммлера зовется Гейдрихом / HHhH (2017) BDRip 1080p | L1 10.22 GB ↑ 97 ↓ 40
2017-10-09 U Мозг Гиммлера зовется Гейдрихом / HHhH (2017) HDRip-AVC от ExKinoRay | L1 2.39 GB ↑ 140 ↓ 91
2017-10-09 U Мозг Гиммлера зовется Гейдрихом / HHhH (2017) HDRip от ExKinoRay | L1 1.45 GB ↑ 199 ↓ 172

Отзывы
Зарегистрируйтесь чтобы добавить комментарий.
Обратная связь
Copyleft ©