↑↓Torrent.by
Поиск
Логин: Регистрация
Пароль: Восстановить пароль
Загрузка...

Истории семьи Майровиц / The Meyerowitz Stories (2017) WEBRip 720p | L

Скачать istorii-semi-mayrovic-the-meyerowitz-stories-2017-webrip-720p-l.torrent
U Магнитная ссылка Размер: 3.43 GB Раздают: 69 Качают: 25 Добавлен: 2017-12-05 17:09:46
Истории семьи Майровиц / The Meyerowitz Stories (2017) WEBRip 720p | L

Наименование: Истории семьи Майровиц
Оригинальное наименование: The Meyerowitz Stories (New and Selected)
Произведено: США
Категория: драма, комедия
Режиссер постановщик: Ноа Баумбак
В главных ролях: Адам Сэндлер, Бен Стиллер, Грэйс Ван Паттен, Дастин Хоффман, Элизабет Марвел, Эмма Томпсон, Дэн Флаэрти, Адам Дэвид Томпсон, Рональд Пит, Джадд Хёрш

О фильме: Дэнни — старший сын сварливого и когда-то известного скульптора Говарда Майровица, непутевый и хромой поэт-песенник. Дэнни приехал в Нью-Йорк к отцу, привез свою дочь и свои проблемы. У Говарда, помимо Дэнни, есть дочь Джин и сын от другого брака, успешный счетовод Мэттью, живущий в Лос-Анджелесе. Проблемы у Говарда тоже есть, например, его четвертая жена недавно бросила пить, отчего у нее испортился характер.
Вскоре у Говарда выставка работ в МОМА. Дети помогают с ее подготовкой, пожилой скульптор вспоминает истории из своей жизни.

Файл
Качество: WEBRip 720p
Видео данные: MKV, 1280x640 (2.000), 23.976  fps,  4000 Кбит/с
Аудио данные: AC3, 2 ch, 384 Кбит/с
Перевод: Любительский многоголосый (GreenРай Studio)
Продолжительность: 01:53:16

Над релизом работали:
Состав дикторов: Кристина Филатова и Ильдор Ахмеджанов, Игорь Кузьмин
Руководитель проекта и координатор: Евгений Овчаренко
Организатор и координатор: Никита Марков
Пиар менеджер студии: Игорь Обухов
Техническая поддержка: Александр Методий
Релиз-группа: GreenРай Studio

ВНИМАНИЕ! Присутствует реклама!

Релиз:


[+] Mediainfo
General
Unique ID                   : 220780989684871917129775553575327010534 (0xA618DF360DEC097485F5ED97D52A8EE6)
Complete name               : D:Сториз ньюThe.Meyerowitz.Stories.New.and.Selected.2017.P.WEB-DL.720p.mkv
Format                      : Matroska
Format version              : Version 4 / Version 2
File size                   : 3.43 GiB
Duration                    : 1 h 53 min
Overall bit rate mode       : Constant
Overall bit rate            : 4 337 kb/s
Encoded date                : UTC 2017-12-04 13:11:14
Writing application         : mkvmerge v8.3.0 ('Over the Horizon') 64bit
Writing library             : libebml v1.3.1 + libmatroska v1.4.2

Video
ID                          : 1
Format                      : AVC
Format/Info                 : Advanced Video Codec
Format profile              : Main@L3.1
Format settings, CABAC      : Yes
Format settings, ReFrames   : 3 frames
Format settings, GOP        : M=4, N=15
Codec ID                    : V_MPEG4/ISO/AVC
Duration                    : 1 h 53 min
Bit rate mode               : Constant
Bit rate                    : 4 000 kb/s
Width                       : 1 280 pixels
Height                      : 640 pixels
Display aspect ratio        : 2.000
Frame rate mode             : Constant
Frame rate                  : 23.976 (24000/1001) FPS
Standard                    : NTSC
Color space                 : YUV
Chroma subsampling          : 4:2:0
Bit depth                   : 8 bits
Scan type                   : Progressive
Bits/(Pixel*Frame)          : 0.204
Stream size                 : 3.12 GiB (91%)
Language                    : English
Default                     : Yes
Forced                      : No
Color range                 : Limited

Audio
ID                          : 2
Format                      : AC-3
Format/Info                 : Audio Coding 3
Mode extension              : CM (complete main)
Format settings, Endianness : Big
Codec ID                    : A_AC3
Duration                    : 1 h 53 min
Bit rate mode               : Constant
Bit rate                    : 384 kb/s
Channel(s)                  : 2 channels
Channel positions           : Front: L R
Sampling rate               : 48.0 kHz
Frame rate                  : 31.250 FPS (1536 spf)
Compression mode            : Lossy
Stream size                 : 311 MiB (9%)
Default                     : Yes
Forced                      : No



Скриншоты:
[+] Всего файлов в раздаче - 1:
The.Meyerowitz.Stories.New.and.Selected.2017.P.WEB-DL.720p.mkv3.43 GB

Текущая раздача:
ДатаКомментарии    РазмерПиры
2017-12-05 U Истории семьи Майровиц / The Meyerowitz Stories (2017) WEBRip 720p | L 3.43 GB ↑ 69 ↓ 25

Показать еще раздачи по запросу истории:
2017-12-05 U Истории семьи Майровиц / The Meyerowitz Stories (2017) WEBRip | L 1.37 GB ↑ 40 ↓ 54
2017-11-24 U Аморальные истории / Contes immoraux (1973) HDRip-AVC | Full Original Version | P2 2.06 GB ↑ 184 ↓ 90
2017-11-17 U Утиные истории: Заветная лампа / DuckTales: The Movie - Treasure of the Lost Lamp (1990) WEB-DL 720p | D, P2, A 2К3.06 GB ↑ 76 ↓ 28
2017-11-04 U Утиные истории / DuckTales [01x01-08 из 23] (2017) WEB-DLRip | NewComers 2.40 GB ↑ 78 ↓ 38
2017-11-03 U Мрачные истории 12. Грейвитч. Коллекционное издание (2017) PC 828.38 MB ↑ 123 ↓ 22
2017-11-02 U Дмитрий Goblin Пучков, Борис Юлин - Вехи русской истории (2017) FB2 1.68 MB ↑ 110 ↓ 3
2017-11-01 U Загадочные истории 8: Опасные желания. Коллекционное издание (2017) PC 1.91 GB ↑ 77 ↓ 43

Отзывы
Зарегистрируйтесь чтобы добавить комментарий.
Обратная связь
Copyleft ©