↑↓Torrent.by
Поиск
Логин: Регистрация
Пароль: Восстановить пароль
Загрузка...

Удача Логана / Logan Lucky (2017) BDRip-AVC от OlLanDGroup | iTunes

Скачать udacha-logana-logan-lucky-2017-bdrip-avc-ot-ollandgroup-itunes.torrent
U Магнитная ссылка Размер: 2.03 GB Раздают: 676 Качают: 424 Добавлен: 2017-12-06 00:22:49
Удача Логана / Logan Lucky (2017) BDRip-AVC от OlLanDGroup | iTunes

Удача Логана / Logan Lucky
«See How The Other Half Steals»

Год выпуска: 2017
Страна: США
Производство: Free Association, Trans-Radial Pictures
Жанр:  Комедия, криминал

Режиссёр: Стивен Содерберг
В ролях: Дэниэл Крэйг, Ченнинг Татум, Адам Драйвер, Сет МакФарлейн, Себастьян Стэн, Кэти Холмс, Хилари Суэнк, Райли Кио, Фаррах Маккензи, Джим О Хейр

Перевод: Дублированный | iTunes
Субтитры: Английские
Реклама: Отсутствует

Описание: Уволили с работы? Подготовь самое дерзкое ограбление в истории! Джимми Логан молниеносно подбирает команду «специалистов», способных на такую аферу, и надеется выйти сухим из воды. Будь как Логан!

Качество: BDRip-AVC
Продолжительность: 01:59:03

Формат: MKV
Видео кодек: MPEG-4 AVC
Аудио кодек: AC3
Видео: 1024x430 (2.40:1), 23,976 fps, x264 ~1612 kbps avg, 0.153 bit/pixel
Аудио #1: 48 kHz, AC3 Dolby Digital, 3/2 (L,C,R,l,r) + LFE ch, ~384.00 kbps avg | RUS (iTunes)
Аудио #2: 48 kHz, AC3 Dolby Digital, 3/2 (L,C,R,l,r) + LFE ch, ~448.00 kbps avg | ENG

Дата премьеры (мир): 7 сентября 2017
Дата премьеры (РФ): 7 сентября 2017, «Capella Film», «WDSSPR»

Релиз: Rip by:


[+] MediaInfo

Общее
Уникальный идентификатор                 : 204962589170420383610501595559905870083 (0x9A325BDA121AE3AB92C3F83572C24103)
Полное имя                               : E:OlLanDGroupLogan.Lucky.2017.BDRip(AVC).OlLanDGroup.mkv
Формат                                   : Matroska
Версия формата                           : Version 2
Размер файла                             : 2,03 Гбайт
Продолжительность                        : 1 ч. 59 м.
Общий поток                              : 2446 Кбит/сек
Название фильма                          : Logan.Lucky.2017   #TorpedoUK#
Дата кодирования                         : UTC 2017-12-05 18:01:42
Программа кодирования                    : mkvmerge v7.8.0 ('River Man') 32bit built on Apr  3 2015 12:11:22
Библиотека кодирования                   : libebml v1.3.1 + libmatroska v1.4.2
Обложка                                  : Yes
Attachments                              : small_cover.jpg / small_cover_land.jpg / cover.jpg / cover_land.jpg

Видео
Идентификатор                            : 1
Формат                                   : AVC
Формат/Информация                        : Advanced Video Codec
Профиль формата                          : High@L4.1
Параметр CABAC формата                   : Да
Параметр ReFrames формата                : 10 кадров
Идентификатор кодека                     : V_MPEG4/ISO/AVC
Продолжительность                        : 1 ч. 59 м.
Битрейт                                  : 1612 Кбит/сек
Ширина                                   : 1024 пикселя
Высота                                   : 430 пикселей
Соотношение сторон                       : 2,40:1
Режим частоты кадров                     : Постоянный
Частота кадров                           : 23,976 (24000/1001) кадра/сек
Цветовое пространство                    : YUV
Субдискретизация насыщенности            : 4:2:0
Битовая глубина                          : 8 бит
Тип развёртки                            : Прогрессивная
Бит/(Пиксели*Кадры)                      : 0.153
Размер потока                            : 1,30 Гбайт (64%)
Библиотека кодирования                   : x264 core 146 r2538 121396c
Настройки программы                      : cabac=1 / ref=10 / deblock=1:-3:-3 / analyse=0x3:0x133 / me=umh / subme=11 / psy=1 / psy_rd=1.00:0.03 / mixed_ref=1 / me_range=48 / chroma_me=1 / trellis=2 / 8x8dct=1 / cqm=0 / deadzone=21,11 / fast_pskip=1 / chroma_qp_offset=-3 / threads=6 / lookahead_threads=1 / sliced_threads=0 / nr=0 / decimate=1 / interlaced=0 / bluray_compat=0 / constrained_intra=0 / bframes=10 / b_pyramid=2 / b_adapt=2 / b_bias=0 / direct=3 / weightb=1 / open_gop=0 / weightp=2 / keyint=240 / keyint_min=23 / scenecut=40 / intra_refresh=0 / rc_lookahead=40 / rc=2pass / mbtree=0 / bitrate=1612 / ratetol=1.0 / qcomp=0.60 / qpmin=0 / qpmax=69 / qpstep=4 / cplxblur=20.0 / qblur=0.5 / vbv_maxrate=50000 / vbv_bufsize=62500 / nal_hrd=none / filler=0 / ip_ratio=1.40 / pb_ratio=1.30 / aq=1:1.00
Язык                                     : English
Default                                  : Да
Forced                                   : Нет

Аудио #1
Идентификатор                            : 2
Формат                                   : AC-3
Формат/Информация                        : Audio Coding 3
Расширение режима                        : CM (complete main)
Параметр Endianness формата              : Big
Идентификатор кодека                     : A_AC3
Продолжительность                        : 1 ч. 59 м.
Вид битрейта                             : Постоянный
Битрейт                                  : 384 Кбит/сек
Каналы                                   : 6 каналов
Расположение каналов                     : Front: L C R, Side: L R, LFE
Частота                                  : 48,0 КГц
Частота кадров                           : 31,250 кадров/сек (1536 spf)
Битовая глубина                          : 16 бит
Метод сжатия                             : С потерями
Размер потока                            : 327 Мбайт (16%)
Заголовок                                : iTunes
Язык                                     : Russian
Default                                  : Да
Forced                                   : Нет

Аудио #2
Идентификатор                            : 3
Формат                                   : AC-3
Формат/Информация                        : Audio Coding 3
Расширение режима                        : CM (complete main)
Параметр Endianness формата              : Big
Идентификатор кодека                     : A_AC3
Продолжительность                        : 1 ч. 59 м.
Вид битрейта                             : Постоянный
Битрейт                                  : 448 Кбит/сек
Каналы                                   : 6 каналов
Расположение каналов                     : Front: L C R, Side: L R, LFE
Частота                                  : 48,0 КГц
Частота кадров                           : 31,250 кадров/сек (1536 spf)
Битовая глубина                          : 16 бит
Метод сжатия                             : С потерями
Размер потока                            : 381 Мбайт (18%)
Заголовок                                : Original
Язык                                     : English
Default                                  : Нет
Forced                                   : Нет

Текст
Идентификатор                            : 4
Формат                                   : UTF-8
Идентификатор кодека                     : S_TEXT/UTF8
Идентификатор кодека/Информация          : UTF-8 Plain Text
Язык                                     : English
Default                                  : Нет
Forced                                   : Нет

Меню
00:00:00.000                             : en:Chapter 01
00:05:41.716                             : en:Chapter 02
00:07:33.202                             : en:Chapter 03
00:10:40.931                             : en:Chapter 04
00:16:24.316                             : en:Chapter 05
00:21:23.282                             : en:Chapter 06
00:29:08.747                             : en:Chapter 07
00:36:03.703                             : en:Chapter 08
00:41:49.423                             : en:Chapter 09
00:47:11.078                             : en:Chapter 10
00:50:08.880                             : en:Chapter 11
00:54:40.527                             : en:Chapter 12
00:57:27.152                             : en:Chapter 13
00:59:16.469                             : en:Chapter 14
01:04:37.039                             : en:Chapter 15
01:07:27.877                             : en:Chapter 16
01:12:12.911                             : en:Chapter 17
01:17:50.248                             : en:Chapter 18
01:19:20.422                             : en:Chapter 19
01:24:02.579                             : en:Chapter 20
01:28:33.099                             : en:Chapter 21
01:32:41.722                             : en:Chapter 22
01:42:27.850                             : en:Chapter 23
01:46:07.652                             : en:Chapter 24
01:50:50.935                             : en:Chapter 25
01:54:55.263                             : en:Chapter 26



Скриншоты:
[+] Всего файлов в раздаче - 1:
Logan.Lucky.2017.BDRip(AVC).OlLanDGroup.mkv2.03 GB

Текущая раздача:
ДатаКомментарии    РазмерПиры
2017-12-06 U Удача Логана / Logan Lucky (2017) BDRip-AVC от OlLanDGroup | iTunes 2.03 GB ↑ 676 ↓ 424

Показать еще раздачи по запросу удача:
2017-12-07 U Удача Логана / Logan Lucky (2017) BDRip-AVC от HELLYWOOD | iTunes 2.13 GB ↑ 73 ↓ 80
2017-12-07 U Удача Логана / Logan Lucky (2017) BDRip-AVC от ExKinoRay | iTunes 745.70 MB ↑ 57 ↓ 28
2017-12-07 U Удача Логана / Logan Lucky (2017) BDRip-AVC от HELLYWOOD | iTunes 1.41 GB ↑ 112 ↓ 46
2017-12-07 U Удача Логана / Logan Lucky (2017) BDRip-HEVC 1080p от ХиМиК | iTunes 5.41 GB ↑ 414 ↓ 189
2017-12-07 U Удача Логана / Logan Lucky (2017) HDRip от Scarabey | iTunes 1.39 GB ↑ 585 ↓ 253
2017-12-07 U Удача Логана / Logan Lucky (2017) BDRip 720p от HELLYWOOD | iTunes 4.32 GB ↑ 792 ↓ 383
2017-12-06 U Удача Логана / Logan Lucky (2017) HDRip от Generalfilm | КПК | iTunes 452.85 MB ↑ 42 ↓ 22

Отзывы
Зарегистрируйтесь чтобы добавить комментарий.
Обратная связь
Copyleft ©