↑↓Torrent.by
Поиск
Логин: Регистрация
Пароль: Восстановить пароль
Загрузка...

Удача Логана / Logan Lucky (2017) BDRip 1080p от New-Team & qqss44 | iTunes

Скачать udacha-logana-logan-lucky-2017-bdrip-1080p-ot-new-team-qqss44-itunes.torrent
U Магнитная ссылка Размер: 6.78 GB Раздают: 309 Качают: 516 Добавлен: 2017-12-06 00:23:09
Удача Логана / Logan Lucky (2017) BDRip 1080p от New-Team & qqss44 | iTunes

Мы "ВКОНТАКТЕ"

Информация о фильме
Название: Удача Логана
Оригинальное название: Logan Lucky
Год выпуска: 2017
Жанр: Комедия, криминал
Режиссер: Стивен Содерберг
В ролях: Дэниэл Крэйг, Ченнинг Татум, Адам Драйвер, Сет МакФарлейн, Себастьян Стэн, Кэти Холмс, Хилари Суэнк, Райли Кио, Фаррах Маккензи, Джим О Хейр

О фильме:
Уволили с работы? Подготовь самое дерзкое ограбление в истории! Джимми Логан молниеносно подбирает команду «специалистов», способных на такую аферу, и надеется выйти сухим из воды. Будь как Логан!

Страна: США
Студия: Free Association, Trans-Radial Pictures
Продолжительность: 01:59:03
Перевод: Дублированный | iTunes

Файл
Формат: MKV, BDRip 1080p
Видео: MPEG-4 AVC, 7777 Кбит/с, 1920x804
Aудио#1: [RUS] AC3 | 48 KHz | 5.1 (Front: L С R Side: L R) + LFE | ~384 kbps
Релиз от:


[+] МИ

Общее
Уникальный идентификатор                 : 243417687504485983534807718610567677499 (0xB7208A94FC4A2FB4902B6A8B8553C63B)
Полное имя                               : X:�0000Logan.Lucky.(2017).BDRip.1080p.(qqss44).mkv
Формат                                   : Matroska
Версия формата                           : Version 2
Размер файла                             : 6,78 Гбайт
Продолжительность                        : 1 ч. 59 м.
Общий поток                              : 8158 Кбит/сек
Название фильма                          : Logan.Lucky.(2017).BDRip.1080p.(qqss44)
Дата кодирования                         : UTC 2017-12-05 17:46:16
Программа кодирования                    : mkvmerge v5.8.0 ('No Sleep / Pillow') built on Sep  2 2012 15:37:04
Библиотека кодирования                   : libebml v1.2.3 + libmatroska v1.3.0

Видео
Идентификатор                            : 1
Формат                                   : AVC
Формат/Информация                        : Advanced Video Codec
Профиль формата                          : High@L4.1
Параметр CABAC формата                   : Да
Параметр ReFrames формата                : 5 кадров
Идентификатор кодека                     : V_MPEG4/ISO/AVC
Продолжительность                        : 1 ч. 59 м.
Битрейт                                  : 7777 Кбит/сек
Ширина                                   : 1920 пикселей
Высота                                   : 804 пикселя
Соотношение сторон                       : 2,40:1
Режим частоты кадров                     : Постоянный
Частота кадров                           : 23,976 (24000/1001) кадра/сек
Цветовое пространство                    : YUV
Субдискретизация насыщенности            : 4:2:0
Битовая глубина                          : 8 бит
Тип развёртки                            : Прогрессивная
Бит/(Пиксели*Кадры)                      : 0.210
Размер потока                            : 6,33 Гбайт (93%)
Библиотека кодирования                   : x264 core 152 r2851kMod ba24899
Настройки программы                      : cabac=1 / ref=5 / deblock=1:-3:-3 / analyse=0x3:0x113 / me=umh / subme=11 / psy=1 / fade_compensate=0.00 / psy_rd=1.00:0.00 / mixed_ref=1 / me_range=32 / chroma_me=1 / trellis=2 / 8x8dct=1 / cqm=0 / deadzone=21,11 / fast_pskip=0 / chroma_qp_offset=-2 / threads=12 / lookahead_threads=2 / sliced_threads=0 / nr=0 / decimate=0 / interlaced=0 / bluray_compat=0 / constrained_intra=0 / bframes=8 / b_pyramid=2 / b_adapt=2 / b_bias=0 / direct=3 / weightb=1 / open_gop=0 / weightp=2 / keyint=240 / keyint_min=23 / scenecut=40 / intra_refresh=0 / rc_lookahead=40 / rc=2pass / mbtree=0 / bitrate=7777 / ratetol=1.0 / qcomp=0.65 / qpmin=0 / qpmax=69 / qpstep=4 / cplxblur=20.0 / qblur=0.5 / vbv_maxrate=50000 / vbv_bufsize=62500 / nal_hrd=none / filler=0 / ip_ratio=1.40 / pb_ratio=1.30 / aq=3:0.70
Язык                                     : English
Default                                  : Да
Forced                                   : Нет

Аудио
Идентификатор                            : 2
Формат                                   : AC-3
Формат/Информация                        : Audio Coding 3
Расширение режима                        : CM (complete main)
Параметр Endianness формата              : Big
Идентификатор кодека                     : A_AC3
Продолжительность                        : 1 ч. 59 м.
Вид битрейта                             : Постоянный
Битрейт                                  : 384 Кбит/сек
Каналы                                   : 6 каналов
Расположение каналов                     : Front: L C R, Side: L R, LFE
Частота                                  : 48,0 КГц
Частота кадров                           : 31,250 кадров/сек (1536 spf)
Метод сжатия                             : С потерями
Размер потока                            : 327 Мбайт (5%)
Default                                  : Да
Forced                                   : Нет

Меню
00:00:00.000                             : en:Chapter 01
00:05:41.716                             : en:Chapter 02
00:07:33.202                             : en:Chapter 03
00:10:40.931                             : en:Chapter 04
00:16:24.316                             : en:Chapter 05
00:21:23.282                             : en:Chapter 06
00:29:08.747                             : en:Chapter 07
00:36:03.703                             : en:Chapter 08
00:41:49.423                             : en:Chapter 09
00:47:11.078                             : en:Chapter 10
00:50:08.880                             : en:Chapter 11
00:54:40.527                             : en:Chapter 12
00:57:27.152                             : en:Chapter 13
00:59:16.469                             : en:Chapter 14
01:04:37.039                             : en:Chapter 15
01:07:27.877                             : en:Chapter 16
01:12:12.911                             : en:Chapter 17
01:17:50.248                             : en:Chapter 18
01:19:20.422                             : en:Chapter 19
01:24:02.579                             : en:Chapter 20
01:28:33.099                             : en:Chapter 21
01:32:41.722                             : en:Chapter 22
01:42:27.850                             : en:Chapter 23
01:46:07.652                             : en:Chapter 24
01:50:50.935                             : en:Chapter 25
01:54:55.263                             : en:Chapter 26




Скриншоты:
[+] Всего файлов в раздаче - 1:
Logan.Lucky.(2017).BDRip.1080p.(qqss44).mkv6.78 GB

Текущая раздача:
ДатаКомментарии    РазмерПиры
2017-12-06 U Удача Логана / Logan Lucky (2017) BDRip 1080p от New-Team & qqss44 | iTunes 1 К 6.78 GB ↑ 309 ↓ 516

Показать еще раздачи по запросу удача:
2017-12-07 U Удача Логана / Logan Lucky (2017) BDRip-AVC от HELLYWOOD | iTunes 2.13 GB ↑ 75 ↓ 81
2017-12-07 U Удача Логана / Logan Lucky (2017) BDRip-AVC от ExKinoRay | iTunes 745.70 MB ↑ 61 ↓ 29
2017-12-07 U Удача Логана / Logan Lucky (2017) BDRip-AVC от HELLYWOOD | iTunes 1.41 GB ↑ 114 ↓ 46
2017-12-07 U Удача Логана / Logan Lucky (2017) BDRip-HEVC 1080p от ХиМиК | iTunes 5.41 GB ↑ 415 ↓ 190
2017-12-07 U Удача Логана / Logan Lucky (2017) HDRip от Scarabey | iTunes 1.39 GB ↑ 590 ↓ 255
2017-12-07 U Удача Логана / Logan Lucky (2017) BDRip 720p от HELLYWOOD | iTunes 4.32 GB ↑ 795 ↓ 384
2017-12-06 U Удача Логана / Logan Lucky (2017) HDRip от Generalfilm | КПК | iTunes 452.85 MB ↑ 42 ↓ 22

Отзывы
Marsby
Спасибо за фильм! Посмотрим!

Зарегистрируйтесь чтобы добавить комментарий.
Обратная связь
Copyleft ©