↑↓Torrent.by
Поиск
Логин: Регистрация
Пароль: Восстановить пароль
Загрузка...

Удача Логана / Logan Lucky (2017) BDRemux 1080p от ExKinoRay | iTunes

Скачать udacha-logana-logan-lucky-2017-bdremux-1080p-ot-exkinoray-itunes.torrent
U Магнитная ссылка Размер: 28.76 GB Раздают: 59 Качают: 105 Добавлен: 2017-12-06 10:30:52
Удача Логана / Logan Lucky (2017) BDRemux 1080p от ExKinoRay | iTunes

Название: Удача Логана
Оригинальное название: Logan Lucky
Год выхода: 2017
Жанр: Комедия, криминал
Режиссер: Стивен Содерберг
В ролях: Дэниэл Крэйг, Ченнинг Татум, Адам Драйвер, Сет МакФарлейн, Себастьян Стэн, Кэти Холмс, Хилари Суэнк, Райли Кио, Фаррах Маккензи, Джим О Хейр

О фильме:
Уволили с работы? Подготовь самое дерзкое ограбление в истории! Джимми Логан молниеносно подбирает команду «специалистов», способных на такую аферу, и надеется выйти сухим из воды. Будь как Логан!

Страна: США
Студия: Free Association, Trans-Radial Pictures
Продолжительность: 01:59:03
Перевод: Дублированный | iTunes

Файл
Качество: BDRemux 1080p
Видео: MPEG-4 AVC, 1920x800, 30.9 Mbit/s, 23.976 fps
Звук:
Аудио #01: 48 kHz, AC3, 5.1, 384 Kbps | Дублированный | iTunes | RUS |
Аудио #02: 48 kHz, DTS-HD MA, 5.1, 3267 Kbps | Оригинал |  ENG |
Субтитры: Английские

Релиз: Автор релиза:


[+] MI
General
Unique ID                   : 249178208797436960496781024172967316445 (0xBB75FA35A71A226BA4D8F79C8C75CBDD)
Complete name               : G:VideoSSDLogan.Lucky.2017.BDREMUX.1080p.ExKinoRay.mkv
Format                      : Matroska
Format version              : Version 4 / Version 2
File size                   : 28.8 GiB
Duration                    : 1 h 59 min
Overall bit rate mode       : Variable
Overall bit rate            : 34.6 Mb/s
Movie name                  : Logan Lucky 2017 from ExKinoRay
Encoded date                : UTC 2017-12-05 22:17:08
Writing application         : mkvmerge v18.0.0 ('Apricity') 64-bit
Writing library             : libebml v1.3.5 + libmatroska v1.4.8

Video
ID                          : 1
Format                      : AVC
Format/Info                 : Advanced Video Codec
Format profile              : High@L4.1
Format settings             : CABAC / 4 Ref Frames
Format settings, CABAC      : Yes
Format settings, RefFrames  : 4 frames
Codec ID                    : V_MPEG4/ISO/AVC
Duration                    : 1 h 59 min
Bit rate mode               : Variable
Bit rate                    : 30.9 Mb/s
Maximum bit rate            : 35.0 Mb/s
Width                       : 1 920 pixels
Height                      : 1 080 pixels
Display aspect ratio        : 16:9
Frame rate mode             : Constant
Frame rate                  : 23.976 (24000/1001) FPS
Color space                 : YUV
Chroma subsampling          : 4:2:0
Bit depth                   : 8 bits
Scan type                   : Progressive
Bits/(Pixel*Frame)          : 0.622
Stream size                 : 25.7 GiB (89%)
Language                    : English
Default                     : Yes
Forced                      : No

Audio #1
ID                          : 2
Format                      : AC-3
Format/Info                 : Audio Coding 3
Format settings, Endianness : Big
Codec ID                    : A_AC3
Duration                    : 1 h 59 min
Bit rate mode               : Constant
Bit rate                    : 384 kb/s
Channel(s)                  : 6 channels
Channel positions           : Front: L C R, Side: L R, LFE
Sampling rate               : 48.0 kHz
Frame rate                  : 31.250 FPS (1536 SPF)
Bit depth                   : 16 bits
Compression mode            : Lossy
Stream size                 : 327 MiB (1%)
Title                       : Dub
Language                    : Russian
Service kind                : Complete Main
Default                     : Yes
Forced                      : No

Audio #2
ID                          : 3
Format                      : DTS
Format/Info                 : Digital Theater Systems
Format profile              : MA / Core
Mode                        : 16
Format settings, Endianness : Big
Codec ID                    : A_DTS
Duration                    : 1 h 59 min
Bit rate mode               : Variable / Constant
Bit rate                    : 3 267 kb/s / 1 509 kb/s
Channel(s)                  : 6 channels
Channel positions           : Front: L C R, Side: L R, LFE
Sampling rate               : 48.0 kHz
Frame rate                  : 93.750 FPS (512 SPF)
Bit depth                   : 24 bits
Compression mode            : Lossless / Lossy
Stream size                 : 2.72 GiB (9%)
Title                       : Original
Language                    : English
Default                     : No
Forced                      : No

Text #1
ID                          : 4
Format                      : UTF-8
Codec ID                    : S_TEXT/UTF8
Codec ID/Info               : UTF-8 Plain Text
Duration                    : 1 h 53 min
Bit rate                    : 67 b/s
Count of elements           : 1634
Stream size                 : 56.1 KiB (0%)
Title                       : Full
Language                    : English
Default                     : No
Forced                      : No

Text #2
ID                          : 5
Format                      : UTF-8
Codec ID                    : S_TEXT/UTF8
Codec ID/Info               : UTF-8 Plain Text
Duration                    : 1 h 57 min
Bit rate                    : 70 b/s
Count of elements           : 1752
Stream size                 : 60.8 KiB (0%)
Title                       : SDH
Language                    : English
Default                     : No
Forced                      : No

Text #3
ID                          : 6
Format                      : UTF-8
Codec ID                    : S_TEXT/UTF8
Codec ID/Info               : UTF-8 Plain Text
Duration                    : 1 h 57 min
Bit rate                    : 97 b/s
Count of elements           : 1752
Stream size                 : 84.4 KiB (0%)
Title                       : SDH Colored
Language                    : English
Default                     : No
Forced                      : No

Menu
00:00:00.000                : en:Jimmy and Sadie
00:05:41.800                : en:Mellie at her salon
00:07:33.203                : en:At Bobbie Jo's home
00:10:40.932                : en:Jimmy and Clyde meet Max at the bar
00:16:24.025                : en:Cauliflower: planning the heist
00:21:23.282                : en:Joe Bang
00:29:08.747                : en:The Bang Brothers
00:36:03.703                : en:Sylvia
00:41:49.424                : en:Changing the date; Gleema
00:47:11.078                : en:Race Day
00:50:08.881                : en:Joe Bang gets sick
00:54:40.527                : en:Prison "riot"
00:57:27.152                : en:Driving to the race
00:59:16.470                : en:Race broadcast; Dayton White
01:04:37.290                : en:"America the Beautiful," LeAnn Rimes
01:07:27.877                : en:Joe talks sience in the tube room
01:12:12.995                : en:Sucking in the money (and other things)
01:17:50.249                : en:Dayton's Operating System
01:19:20.422                : en:Evading the CMS police
01:24:02.913                : en:Going home; "Storm Warning"
01:28:33.099                : en:Sadie's performance
01:32:41.514                : en:The next morning; the FBI arrives
01:42:27.433                : en:Joe leaves prison
01:46:07.653                : en:"Fortunate Son"
01:50:50.936                : en:Bobbie Jo's new home
01:54:55.263                : en:End titles



Скриншоты:
[+] Всего файлов в раздаче - 1:
Logan.Lucky.2017.BDREMUX.1080p.ExKinoRay.mkv28.76 GB

Текущая раздача:
ДатаКомментарии    РазмерПиры
2017-12-06 U Удача Логана / Logan Lucky (2017) BDRemux 1080p от ExKinoRay | iTunes 28.76 GB ↑ 59 ↓ 105

Показать еще раздачи по запросу удача:
2017-12-07 U Удача Логана / Logan Lucky (2017) BDRip-AVC от HELLYWOOD | iTunes 2.13 GB ↑ 73 ↓ 80
2017-12-07 U Удача Логана / Logan Lucky (2017) BDRip-AVC от ExKinoRay | iTunes 745.70 MB ↑ 57 ↓ 28
2017-12-07 U Удача Логана / Logan Lucky (2017) BDRip-AVC от HELLYWOOD | iTunes 1.41 GB ↑ 112 ↓ 46
2017-12-07 U Удача Логана / Logan Lucky (2017) BDRip-HEVC 1080p от ХиМиК | iTunes 5.41 GB ↑ 414 ↓ 189
2017-12-07 U Удача Логана / Logan Lucky (2017) HDRip от Scarabey | iTunes 1.39 GB ↑ 585 ↓ 253
2017-12-07 U Удача Логана / Logan Lucky (2017) BDRip 720p от HELLYWOOD | iTunes 4.32 GB ↑ 792 ↓ 383
2017-12-06 U Удача Логана / Logan Lucky (2017) HDRip от Generalfilm | КПК | iTunes 452.85 MB ↑ 42 ↓ 22

Отзывы
Зарегистрируйтесь чтобы добавить комментарий.
Обратная связь
Copyleft ©