↑↓Torrent.by
Поиск
Логин: Регистрация
Пароль: Восстановить пароль
Загрузка...

Безумные соседи / À bras ouverts (2017) BDRemux 1080p от ExKinoRay | iTunes

Скачать bezumnye-sosedi-bras-ouverts-2017-bdremux-1080p-ot-exkinoray-itunes.torrent
U Магнитная ссылка Размер: 25.92 GB Раздают: 53 Качают: 20 Добавлен: 2017-12-06 10:31:06
Безумные соседи / À bras ouverts (2017) BDRemux 1080p от ExKinoRay | iTunes

Название: Безумные соседи
Оригинальное название: À bras ouverts
Год выхода: 2017
Жанр: Комедия
Режиссер: Филипп де Шоврон
В ролях: Кристиан Клавье, Эри Абиттан, Эльза Зильберштейн, Сириль Леконт, Нану Гарсия, Оскар Берт, Мирела Николау, София Мануша, Иоана Висалон, Никита Драгомир

О фильме:
В запале предвыборных дебатов рафинированный буржуа Жан-Этьен Фужероль неосторожно бросает с экрана телевизора, что его любимая Франция открыта для любых иммигрантов, они повсюду найдут себе кров и еду, даже в его доме. Не проходит и суток, как у его ворот появляется цыганский табор во главе с наглецом Бабиком. Не пустить — потерять голоса избирателей. Размеренной семейной жизни приходит конец: нежданные гости плавают в крытом бассейне, устраивают концерты во дворе, обживают хозяйский туалет, пьют коллекционные вина и даже пытаются приударить за женой Жан-Этьена.

Страна: Франция, Бельгия
Студия: Camera One, Ouille Productions, Pulsar Productions, SND, Canal+ [fr], Ciné, Investisseurs Tax Shelter, La Wallonie, Le Tax Shelter du Gouvernement Fédéral de Belgique, M6 Films, Nexus Factory, uFund, uMedia Family, W9
Продолжительность: 01:32:13
Перевод: Дублированный | iTunes

Файл
Качество: BDRemux 1080p
Видео: MPEG-4 AVC, 1920x1080, 37.9 Mbit/s, 24.000 fps
Звук:
Аудио #01: 48 kHz, AC3, 5.1, 384 Kbps | Дублированный | iTunes | RUS |
Аудио #02: 48 kHz, DTS-HD MA, 5.1, 1920 Kbps | Оригинал |  FRE |
Субтитры: Французские

Релиз: Автор релиза:


[+] MI
General
Unique ID                   : 242632619051195288594318766107120237939 (0xB68957B80391219DB757EFE75A5DFD73)
Complete name               : G:VideoSSDA.Bras.Ouverts.2017.BDREMUX.1080p.ExKinoRay.mkv
Format                      : Matroska
Format version              : Version 4 / Version 2
File size                   : 25.9 GiB
Duration                    : 1 h 32 min
Overall bit rate mode       : Variable
Overall bit rate            : 40.2 Mb/s
Movie name                  : A Bras Ouverts 2017 from ExKinoRay
Encoded date                : UTC 2017-12-05 07:54:28
Writing application         : mkvmerge v18.0.0 ('Apricity') 64-bit
Writing library             : libebml v1.3.5 + libmatroska v1.4.8

Video
ID                          : 1
Format                      : AVC
Format/Info                 : Advanced Video Codec
Format profile              : High@L4.1
Format settings             : CABAC / 2 Ref Frames
Format settings, CABAC      : Yes
Format settings, RefFrames  : 2 frames
Codec ID                    : V_MPEG4/ISO/AVC
Duration                    : 1 h 32 min
Bit rate mode               : Variable
Bit rate                    : 37.9 Mb/s
Width                       : 1 920 pixels
Height                      : 1 080 pixels
Display aspect ratio        : 16:9
Frame rate mode             : Constant
Frame rate                  : 24.000 FPS
Color space                 : YUV
Chroma subsampling          : 4:2:0
Bit depth                   : 8 bits
Scan type                   : Progressive
Bits/(Pixel*Frame)          : 0.762
Stream size                 : 24.4 GiB (94%)
Language                    : English
Default                     : No
Forced                      : No

Audio #1
ID                          : 2
Format                      : AC-3
Format/Info                 : Audio Coding 3
Format settings, Endianness : Big
Codec ID                    : A_AC3
Duration                    : 1 h 32 min
Bit rate mode               : Constant
Bit rate                    : 384 kb/s
Channel(s)                  : 6 channels
Channel positions           : Front: L C R, Side: L R, LFE
Sampling rate               : 48.0 kHz
Frame rate                  : 31.250 FPS (1536 SPF)
Bit depth                   : 16 bits
Compression mode            : Lossy
Stream size                 : 253 MiB (1%)
Title                       : iTunes
Language                    : Russian
Service kind                : Complete Main
Default                     : Yes
Forced                      : No

Audio #2
ID                          : 3
Format                      : DTS
Format/Info                 : Digital Theater Systems
Format profile              : MA / Core
Mode                        : 16
Format settings, Endianness : Big
Codec ID                    : A_DTS
Duration                    : 1 h 32 min
Bit rate mode               : Variable / Constant
Bit rate                    : 1 920 kb/s / 1 509 kb/s
Channel(s)                  : 6 channels
Channel positions           : Front: L C R, Side: L R, LFE
Sampling rate               : 48.0 kHz
Frame rate                  : 93.750 FPS (512 SPF)
Bit depth                   : 16 bits
Compression mode            : Lossless / Lossy
Stream size                 : 1.25 GiB (5%)
Title                       : Original
Language                    : French
Default                     : No
Forced                      : No

Text
ID                          : 4
Format                      : UTF-8
Codec ID                    : S_TEXT/UTF8
Codec ID/Info               : UTF-8 Plain Text
Duration                    : 1 h 24 min
Bit rate                    : 2 b/s
Count of elements           : 66
Stream size                 : 1.64 KiB (0%)
Title                       : Full
Language                    : French
Default                     : No
Forced                      : No

Menu
00:00:00.000                : fr:Chapitre 01
00:07:40.500                : fr:Chapitre 02
00:13:22.375                : fr:Chapitre 03
00:21:33.625                : fr:Chapitre 04
00:27:51.875                : fr:Chapitre 05
00:35:08.083                : fr:Chapitre 06
00:42:06.458                : fr:Chapitre 07
00:51:13.458                : fr:Chapitre 08
00:57:47.416                : fr:Chapitre 09
01:03:44.541                : fr:Chapitre 10
01:13:09.333                : fr:Chapitre 11
01:24:02.750                : fr:Chapitre 12



Скриншоты:
[+] Всего файлов в раздаче - 1:
A.Bras.Ouverts.2017.BDREMUX.1080p.ExKinoRay.mkv25.92 GB

Текущая раздача:
ДатаКомментарии    РазмерПиры
2017-12-06 U Безумные соседи / À bras ouverts (2017) BDRemux 1080p от ExKinoRay | iTunes 1 К 25.92 GB ↑ 53 ↓ 20

Показать еще раздачи по запросу безумные:
2017-12-13 U Безумные соседи / À bras ouverts (2017) BDRip от ExKinoRay | iTunes 1.42 GB ↑ 68 ↓ 26
2017-12-08 U Безумные соседи / À bras ouverts (2017) BDRip-AVC от HELLYWOOD | iTunes 1К2.14 GB ↑ 32 ↓ 15
2017-12-07 U Безумные соседи / À bras ouverts (2017) BDRip-AVC от ExKinoRay | iTunes 746.85 MB ↑ 47 ↓ 10
2017-12-07 U Безумные соседи / À bras ouverts (2017) BDRip-AVC от HELLYWOOD | iTunes 1.42 GB ↑ 49 ↓ 37
2017-12-06 U Безумные соседи / À bras ouverts (2017) BDRip 1080p от ExKinoRay | iTunes 11.85 GB ↑ 56 ↓ 62
2017-12-06 U Безумные соседи / À bras ouverts (2017) HDRip от MegaPeer | iTunes 746.35 MB ↑ 52 ↓ 29
2017-12-05 U Безумные соседи / À bras ouverts (2017) BDRip от MegaPeer | iTunes 1.42 GB ↑ 165 ↓ 113

Отзывы
Sergey_Senkevich
Ну и хрень полная. Если это юмор, то я Жванецкий. Физиономии в этом фильме просто "прелестны". Тема иммигрантов мягко скажем - подза*надоела. Как и тема толерантности, война в Сирии и куча политических проституток засирающих мозг по всем формам СМИ в этой стране.

Зарегистрируйтесь чтобы добавить комментарий.
Обратная связь
Copyleft ©