↑↓Torrent.by
Поиск
Логин: Регистрация
Пароль: Восстановить пароль
Загрузка...

Битлз: Восемь дней в неделю / The Beatles: Eight Days a Week - The Touring Years (2016) BDRip 720p | L

Скачать bitlz-vosem-dney-v-nedelyu-the-beatles-eight-days-a-week-touring-years-2016-bdrip-720p-l.torrent
U Магнитная ссылка Размер: 3.32 GB Раздают: 78 Качают: 23 Добавлен: 2017-12-06 15:12:05
Битлз: Восемь дней в неделю / The Beatles: Eight Days a Week - The Touring Years (2016) BDRip 720p | L

Наименование: Битлз: Восемь дней в неделю
Оригинальное наименование: The Beatles: Eight Days a Week - The Touring Years
Произведено: США
Категория: документальный, музыка
Режиссер постановщик: Рон Ховард
В главных ролях:  The Beatles, Джон Леннон, Пол МакКартни, Джордж Харрисон, Ринго Старр, Вуппи Голдберг, Элвис Костелло, Эдди Иззард, Сигурни Уивер, Нил Армстронг

О фильме: Первый документальный фильм Рона Ховарда, приглашающий поклонников группы The Beatles на гастрольные туры с 1963 по 1966 год, от дебюта в ливерпульском клубе до прощального выступления в Сан-Франциско. С помощью эксклюзивных записей, хроник, воспоминаний воссоздается история легендарной четверки – как они работали над будущими хитами, решали повседневные вопросы и превращались в коллектив, обретший бессмертие в истории музыкальной культуры.

Файл
Качество: BDRip 720p
Видео данные: MKV, 1280x720 (16:9), 23.976 fps,  4000 Кбит/с
Аудио данные: AC3, 2 ch, 640 Кбит/с
Перевод: Любительский многоголосый (GreenРай Studio)
Продолжительность: 01:46:11

Над релизом работали:
Состав дикторов: Василий Чупров и Нана Саркисян, Анна Кириленко
Руководитель проекта и координатор: Евгений Овчаренко
Организатор и координатор: Никита Марков
Пиар менеджер студии: Игорь Обухов
Техническая поддержка: Александр Методий

ВНИМАНИЕ! Присутствует реклама!

Релиз:


[+] Mediainfo
General
Unique ID                   : 222388815620608107114787242053521157619 (0xA74E87266C8CF1879B4A75D89FC8ADF3)
Complete name               : D:БитлзThe.Beatles.Eight.Days.a.Week.The.Touring.Years.2016.P.BDRip720p.mkv
Format                      : Matroska
Format version              : Version 4 / Version 2
File size                   : 3.32 GiB
Duration                    : 1 h 46 min
Overall bit rate mode       : Constant
Overall bit rate            : 4 477 kb/s
Encoded date                : UTC 2017-12-05 07:41:56
Writing application         : mkvmerge v8.3.0 ('Over the Horizon') 64bit
Writing library             : libebml v1.3.1 + libmatroska v1.4.2

Video
ID                          : 1
Format                      : AVC
Format/Info                 : Advanced Video Codec
Format profile              : Main@L3.2
Format settings, CABAC      : Yes
Format settings, ReFrames   : 3 frames
Codec ID                    : V_MPEG4/ISO/AVC
Duration                    : 1 h 46 min
Bit rate mode               : Constant
Bit rate                    : 4 000 kb/s
Width                       : 1 280 pixels
Height                      : 720 pixels
Display aspect ratio        : 16:9
Frame rate mode             : Constant
Frame rate                  : 23.976 (23976/1000) FPS
Standard                    : NTSC
Color space                 : YUV
Chroma subsampling          : 4:2:0
Bit depth                   : 8 bits
Scan type                   : Progressive
Bits/(Pixel*Frame)          : 0.181
Stream size                 : 2.85 GiB (86%)
Language                    : English
Default                     : Yes
Forced                      : No
Color range                 : Limited

Audio
ID                          : 2
Format                      : AC-3
Format/Info                 : Audio Coding 3
Mode extension              : CM (complete main)
Format settings, Endianness : Big
Codec ID                    : A_AC3
Duration                    : 1 h 46 min
Bit rate mode               : Constant
Bit rate                    : 640 kb/s
Channel(s)                  : 2 channels
Channel positions           : Front: L R
Sampling rate               : 48.0 kHz
Frame rate                  : 31.250 FPS (1536 spf)
Compression mode            : Lossy
Stream size                 : 486 MiB (14%)
Default                     : Yes
Forced                      : No



Скриншоты:
[+] Всего файлов в раздаче - 1:
The.Beatles.Eight.Days.a.Week.The.Touring.Years.2016.P.BDRip720p.mkv3.32 GB

Текущая раздача:
ДатаКомментарии    РазмерПиры
2017-12-06 U Битлз: Восемь дней в неделю / The Beatles: Eight Days a Week - The Touring Years (2016) BDRip 720p | L 3.32 GB ↑ 78 ↓ 23

Похожие раздачи по запросу - битлз:
2017-12-06 U Битлз: Восемь дней в неделю / The Beatles: Eight Days a Week - The Touring Years (2016) HDRip | L 1.37 GB ↑ 45 ↓ 17
2017-03-25 U Битлз против Роллинг Стоунз / The Beatles vs The Rolling Stones (2015) HDTVRip-AVC) от 0ptimus | DVO 749.15 MB ↑ 324 ↓ 3
2016-11-25 U Битлз: Восемь дней в неделю / The Beatles: Eight Days a Week - The Touring Years (2016) BDRip от Koenig 1.45 GB ↑ 112 ↓ 17

Отзывы
Зарегистрируйтесь чтобы добавить комментарий.
Обратная связь
Copyleft ©