↑↓Torrent.by
Поиск
Логин: Регистрация
Пароль: Восстановить пароль
Загрузка...

Тебе конец! / You're Next (2013) BDRip-AVC от ExKinoRay | Лицензия

Скачать tebe-konec-you-re-next-2013-bdrip-avc-ot-exkinoray-licenziya.torrent
U Магнитная ссылка Размер: 2.05 GB Раздают: 46 Качают: 17 Добавлен: 2017-12-06 17:33:21
Тебе конец! / You're Next (2013) BDRip-AVC от ExKinoRay | Лицензия

Название: Тебе конец
Оригинальное название: You're Next
Год выхода: 2013
Жанр: Триллер, ужасы
Режиссер: Адам Вингард
В ролях: Шарни Винсон, Николас Туччи, Венди Гленн, Эй Джей Боуэн, Джо Сванберг, Барбара Крэмптон, Роб Моран, Маргарет Лэни, Эми Саймец, Ти Уэст

О фильме:
Банда маньяков в звериных масках, вооруженных топорами и арбалетами, вторгается в загородный дом семьи Дэвисон. Жертвы оказываются в западне… Неожиданно среди них находится один достойный противник, способный дать отпор убийцам.

 
Выпущено: США, HanWay Films, Snoot Entertainment
Продолжительность: 01:34:23
Перевод: Дублированный | Лицензия

Файл
Кодек: H.264
Качество: BDRip (AVC)
Видео: MPEG-4 AVC, 2220 Кбит/с, 1024x428
Звук: Русский,  английский  (AC3, 6 ch, 448 Кбит/сс)
Субтитры: Русские, английские

Релиз:


[+] MediaInfo
Формат                                   : Matroska
Версия формата                           : Version 4 / Version 2
Размер файла                             : 2,05 Гбайт
Продолжительность                        : 1 ч. 34 м.
Общий поток                              : 3113 Кбит/сек
Название фильма                          : You're.Next.2013.x264.BDRip.(AVC).ExKinoRay
Дата кодирования                         : UTC 2017-12-05 12:09:26
Программа кодирования                    : mkvmerge v17.0.0 ('Be Ur Friend') 64-bit
Библиотека кодирования                   : libebml v1.3.5 + libmatroska v1.4.8

Видео
Идентификатор                            : 1
Формат                                   : AVC
Формат/Информация                        : Advanced Video Codec
Профиль формата                          : High@L4.1
Параметр CABAC формата                   : Да
Параметр ReFrames формата                : 12 кадров
Идентификатор кодека                     : V_MPEG4/ISO/AVC
Продолжительность                        : 1 ч. 34 м.
Битрейт                                  : 2220 Кбит/сек
Ширина                                   : 1024 пикселя
Высота                                   : 428 пикселей
Соотношение сторон                       : 2,40:1
Режим частоты кадров                     : Постоянный
Частота кадров                           : 23,976 (24000/1001) кадра/сек
Цветовое пространство                    : YUV
Субдискретизация насыщенности            : 4:2:0
Битовая глубина                          : 8 бит
Тип развёртки                            : Прогрессивная
Бит/(Пиксели*Кадры)                      : 0.211
Размер потока                            : 1,46 Гбайт (71%)
Заголовок                                : ExKinoRay
Библиотека кодирования                   : x264 core 152 r2851 ba24899
Настройки программы                      : cabac=1 / ref=12 / deblock=1:-2:-2 / analyse=0x3:0x133 / me=umh / subme=11 / psy=1 / psy_rd=1.00:0.00 / mixed_ref=1 / me_range=32 / chroma_me=1 / trellis=2 / 8x8dct=1 / cqm=0 / deadzone=21,11 / fast_pskip=0 / chroma_qp_offset=-3 / threads=6 / lookahead_threads=1 / sliced_threads=0 / nr=0 / decimate=0 / interlaced=0 / bluray_compat=0 / constrained_intra=0 / bframes=10 / b_pyramid=2 / b_adapt=2 / b_bias=0 / direct=3 / weightb=1 / open_gop=0 / weightp=2 / keyint=240 / keyint_min=23 / scenecut=40 / intra_refresh=0 / rc_lookahead=40 / rc=2pass / mbtree=0 / bitrate=2220 / ratetol=1.0 / qcomp=0.60 / qpmin=0 / qpmax=69 / qpstep=4 / cplxblur=20.0 / qblur=0.5 / vbv_maxrate=50000 / vbv_bufsize=62500 / nal_hrd=none / filler=0 / ip_ratio=1.40 / pb_ratio=1.30 / aq=2:1.00
Язык                                     : English
Default                                  : Да
Forced                                   : Нет

Аудио #1
Идентификатор                            : 2
Формат                                   : AC-3
Формат/Информация                        : Audio Coding 3
Расширение режима                        : CM (complete main)
Параметр Endianness формата              : Big
Идентификатор кодека                     : A_AC3
Продолжительность                        : 1 ч. 34 м.
Вид битрейта                             : Постоянный
Битрейт                                  : 448 Кбит/сек
Каналы                                   : 6 каналов
Расположение каналов                     : Front: L C R, Side: L R, LFE
Частота                                  : 48,0 КГц
Частота кадров                           : 31,250 кадров/сек (1536 spf)
Метод сжатия                             : С потерями
Размер потока                            : 302 Мбайт (14%)
Язык                                     : Russian
Default                                  : Да
Forced                                   : Нет

Аудио #2
Идентификатор                            : 3
Формат                                   : AC-3
Формат/Информация                        : Audio Coding 3
Расширение режима                        : CM (complete main)
Параметр Endianness формата              : Big
Идентификатор кодека                     : A_AC3
Продолжительность                        : 1 ч. 34 м.
Вид битрейта                             : Постоянный
Битрейт                                  : 448 Кбит/сек
Каналы                                   : 6 каналов
Расположение каналов                     : Front: L C R, Side: L R, LFE
Частота                                  : 48,0 КГц
Частота кадров                           : 31,250 кадров/сек (1536 spf)
Метод сжатия                             : С потерями
Размер потока                            : 302 Мбайт (14%)
Язык                                     : English
Default                                  : Нет
Forced                                   : Нет

Текст #1
Идентификатор                            : 4
Формат                                   : UTF-8
Идентификатор кодека                     : S_TEXT/UTF8
Идентификатор кодека/Информация          : UTF-8 Plain Text
Продолжительность                        : 1 ч. 30 м.
Битрейт                                  : 52 бит/сек
Count of elements                        : 734
Размер потока                            : 34,7 Кбайт (0%)
Язык                                     : Russian
Default                                  : Нет
Forced                                   : Нет

Текст #2
Идентификатор                            : 5
Формат                                   : UTF-8
Идентификатор кодека                     : S_TEXT/UTF8
Идентификатор кодека/Информация          : UTF-8 Plain Text
Продолжительность                        : 1 ч. 33 м.
Битрейт                                  : 39 бит/сек
Count of elements                        : 806
Размер потока                            : 27,1 Кбайт (0%)
Язык                                     : English
Default                                  : Нет
Forced                                   : Нет

Меню
00:00:00.000                             : en:Chapter 1
00:04:26.015                             : en:Chapter 2
00:15:08.365                             : en:Chapter 3
00:22:49.868                             : en:Chapter 4
00:33:38.850                             : en:Chapter 5
00:44:59.821                             : en:Chapter 6
00:54:07.994                             : en:Chapter 7
01:01:25.681                             : en:Chapter 8
01:11:12.017                             : en:Chapter 9
01:17:46.077                             : en:Chapter 10
01:24:08.126                             : en:Chapter 11
01:31:24.979                             : en:Chapter 12
01:34:23.449                             : en:Chapter 13



Скриншоты:
[+] Всего файлов в раздаче - 1:

Текущая раздача:
ДатаКомментарии    РазмерПиры
2017-12-06 U Тебе конец! / You're Next (2013) BDRip-AVC от ExKinoRay | Лицензия 1 К 2.05 GB ↑ 46 ↓ 17

Показать еще раздачи по запросу тебе:
2017-08-26 U VA - Клубные Пушки. Лучшее Тебе в Уши [Sound Clinic - Special Edition] (2017) MP3 7.54 GB ↑ 122 ↓ 73
2016-06-04 U Сборник - Я куплю тебе дом. Шансон 90-х (2014) MP3 639.70 MB ↑ 349 ↓ 3
2014-04-13 U Я подарю тебе любовь (2014) SATRip от Кинозал 1.17 GB ↑ 224 ↓ 77
2014-02-15 U VA - Тебе. В День Святого Валентина 2014 (2014) MP3 ot ikar911 (2014) MP3 948.39 MB ↑ 78 ↓ 0
2014-02-14 U VA - Тебе. В День Святого Валентина 2014 (2014) FLAC ot ikar911 1К2.41 GB ↑ 42 ↓ 28
2014-02-09 U Тебе конец! / Ты следующий / You're Next (2013) HDRip от Scarabey | Лицензия 1К1.44 GB ↑ 127 ↓ 50
2014-01-31 U Тебе конец / You're Next (2013) BDRip 720p от HELLYWOOD | Лицензия 3.15 GB ↑ 146 ↓ 93

Отзывы
rejabboy
Так и не видел нигде этого фильмы в нормальном 1080.

Зарегистрируйтесь чтобы добавить комментарий.
Обратная связь
Copyleft ©