↑↓Torrent.by
Поиск
Логин: Регистрация
Пароль: Восстановить пароль
Загрузка...

Удача Логана / Logan Lucky (2017) BDRip-HEVC 1080p от ХиМиК | iTunes

Скачать udacha-logana-logan-lucky-2017-bdrip-hevc-1080p-ot-himik-itunes.torrent
U Магнитная ссылка Размер: 5.41 GB Раздают: 419 Качают: 190 Добавлен: 2017-12-07 00:16:54
Удача Логана / Logan Lucky (2017) BDRip-HEVC 1080p от ХиМиК | iTunes

Название: Удача Логана
Оригинальное название: Logan Lucky
Год выхода: 2017
Жанр: Комедия, криминал
Режиссер: Стивен Содерберг
В ролях: Дэниэл Крэйг, Ченнинг Татум, Адам Драйвер, Сет МакФарлейн, Себастьян Стэн, Кэти Холмс, Хилари Суэнк, Райли Кио, Фаррах Маккензи, Джим О Хейр

О фильме:
Уволили с работы? Подготовь самое дерзкое ограбление в истории! Джимми Логан молниеносно подбирает команду «специалистов», способных на такую аферу, и надеется выйти сухим из воды. Будь как Логан!

Страна: США
Студия: Free Association, Trans-Radial Pictures
Продолжительность: 01:59:03
Перевод: Дублированный (iTunes)

Файл
Кодек: HEVC x265 10 bit
Качество: BDRip-HEVC 1080p
Видео: 1920x800 (2.40:1), 5673 Кбит/сек, 0.154 бит/(Пиксели*Кадры), 23.976 (24000/1001) кадр/сек, HEVC (Main10@L.4.1@High) 10 бит
Звук:
Русская, AC3, 384 kb/s, Front: L C R, Side: L R, LFE, 48.0 kHz (Дубляж iTunes)
Английская, AC3, 448 kb/s, Front: L C R, Side: L R, LFE, 48.0 kHz (Оригинал)
Субтитры: Английский
Разделение по главам: есть

Семпл

Релиз от: от XuMuK


[+] MediaInfo

General
Unique ID                   : 226823521610072115676397150071826320297 (0xAAA49F0952E65CDE97CFF72437AA8BA9)
Complete name               : I:HEVC 210 BITLogan Lucky_2017_BDRip_1080p_[HEVC]_10bit.mkv
Format                      : Matroska
Format version              : Version 4 / Version 2
File size                   : 5.41 GiB
Duration                    : 1 h 59 min
Overall bit rate            : 6 508 kb/s
Encoded date                : UTC 2017-12-06 14:23:28
Writing application         : mkvmerge v9.9.0 ('Pick Up') 64bit
Writing library             : libebml v1.3.4 + libmatroska v1.4.5
Cover                       : Yes
Attachments                 : cover.png

Video
ID                          : 1
Format                      : HEVC
Format/Info                 : High Efficiency Video Coding
Format profile              : Main 10@L4.1@High
Codec ID                    : V_MPEGH/ISO/HEVC
Duration                    : 1 h 59 min
Bit rate                    : 5 673 kb/s
Width                       : 1 920 pixels
Height                      : 800 pixels
Display aspect ratio        : 2.40:1
Frame rate mode             : Constant
Frame rate                  : 23.976 (24000/1001) FPS
Color space                 : YUV
Chroma subsampling          : 4:2:0
Bit depth                   : 10 bits
Bits/(Pixel*Frame)          : 0.154
Stream size                 : 4.72 GiB (87%)
Writing library             : x265 2.5+14-2718cb5dd67f:[Windows][GCC 7.1.0][64 bit] 10bit
Encoding settings           : cpuid=1173503 / frame-threads=4 / numa-pools=16 / wpp / no-pmode / no-pme / no-psnr / no-ssim / log-level=2 / input-csp=1 / input-res=1920x800 / interlace=0 / total-frames=0 / level-idc=41 / high-tier=1 / uhd-bd=0 / ref=4 / no-allow-non-conformance / no-repeat-headers / annexb / no-aud / no-hrd / info / hash=0 / no-temporal-layers / open-gop / min-keyint=23 / keyint=250 / bframes=4 / b-adapt=2 / no-b-pyramid / bframe-bias=0 / rc-lookahead=25 / lookahead-slices=4 / scenecut=40 / no-intra-refresh / ctu=64 / min-cu-size=8 / rect / no-amp / max-tu-size=32 / tu-inter-depth=2 / tu-intra-depth=2 / limit-tu=0 / rdoq-level=2 / dynamic-rd=0.00 / no-ssim-rd / signhide / no-tskip / nr-intra=0 / nr-inter=0 / no-constrained-intra / no-strong-intra-smoothing / max-merge=3 / limit-refs=3 / limit-modes / me=3 / subme=3 / merange=57 / temporal-mvp / weightp / weightb / no-analyze-src-pics / deblock=-3:-3 / no-sao / no-sao-non-deblock / rd=4 / no-early-skip / rskip / no-fast-intra / no-tskip-fast / no-cu-lossless / no-b-intra / no-splitrd-skip / rdpenalty=0 / psy-rd=2.00 / psy-rdoq=1.00 / no-rd-refine / analysis-reuse-mode=0 / no-lossless / cbqpoffs=0 / crqpoffs=0 / rc=crf / crf=18.0 / qcomp=0.60 / qpstep=4 / stats-write=0 / stats-read=0 / vbv-maxrate=50000 / vbv-bufsize=50000 / vbv-init=0.9 / crf-max=0.0 / crf-min=0.0 / ipratio=1.10 / pbratio=1.10 / aq-mode=1 / aq-strength=1.00 / cutree / zone-count=1 / zones: / start-frame=165736 / end-frame=171265 / qp=35 / no-strict-cbr / qg-size=32 / no-rc-grain / qpmax=69 / qpmin=0 / no-const-vbv / sar=0 / overscan=0 / videoformat=5 / range=0 / colorprim=2 / transfer=2 / colormatrix=1 / chromaloc=0 / display-window=0 / max-cll=0,0 / min-luma=0 / max-luma=1023 / log2-max-poc-lsb=8 / vui-timing-info / vui-hrd-info / slices=1 / opt-qp-pps / opt-ref-list-length-pps / no-multi-pass-opt-rps / scenecut-bias=0.05 / no-opt-cu-delta-qp / no-aq-motion / no-hdr / no-hdr-opt / no-dhdr10-opt / analysis-reuse-level=5 / scale-factor=0 / refine-intra=0 / refine-inter=0 / refine-mv=0 / no-limit-sao / ctu-info=0
Default                     : Yes
Forced                      : Yes
Color range                 : Limited
Matrix coefficients         : BT.709

Audio #1
ID                          : 2
Format                      : AC-3
Format/Info                 : Audio Coding 3
Format settings, Endianness : Big
Codec ID                    : A_AC3
Duration                    : 1 h 59 min
Bit rate mode               : Constant
Bit rate                    : 384 kb/s
Channel(s)                  : 6 channels
Channel positions           : Front: L C R, Side: L R, LFE
Sampling rate               : 48.0 kHz
Frame rate                  : 31.250 FPS (1536 SPF)
Bit depth                   : 16 bits
Compression mode            : Lossy
Stream size                 : 327 MiB (6%)
Title                       : Dub
Language                    : Russian
Service kind                : Complete Main
Default                     : Yes
Forced                      : No

Audio #2
ID                          : 3
Format                      : AC-3
Format/Info                 : Audio Coding 3
Format settings, Endianness : Big
Codec ID                    : A_AC3
Duration                    : 1 h 59 min
Bit rate mode               : Constant
Bit rate                    : 448 kb/s
Channel(s)                  : 6 channels
Channel positions           : Front: L C R, Side: L R, LFE
Sampling rate               : 48.0 kHz
Frame rate                  : 31.250 FPS (1536 SPF)
Bit depth                   : 16 bits
Compression mode            : Lossy
Stream size                 : 381 MiB (7%)
Title                       : Original
Language                    : English
Service kind                : Complete Main
Default                     : No
Forced                      : No

Text
ID                          : 4
Format                      : UTF-8
Codec ID                    : S_TEXT/UTF8
Codec ID/Info               : UTF-8 Plain Text
Duration                    : 1 h 53 min
Bit rate                    : 67 b/s
Count of elements           : 1634
Stream size                 : 56.1 KiB (0%)
Title                       : Full
Language                    : English
Default                     : Yes
Forced                      : No

Menu
00:00:00.000                : :Jimmy and Sadie
00:05:41.800                : :Mellie at her salon
00:07:33.203                : :At Bobbie Jo's home
00:10:40.932                : :Jimmy and Clyde meet Max at the bar
00:16:24.025                : :Cauliflower: planning the heist
00:21:23.282                : :Joe Bang
00:29:08.747                : :The Bang Brothers
00:36:03.703                : :Sylvia
00:41:49.424                : :Changing the date; Gleema
00:47:11.078                : :Race Day
00:50:08.881                : :Joe Bang gets sick
00:54:40.527                : :Prison "riot"
00:57:27.152                : :Driving to the race
00:59:16.470                : :Race broadcast; Dayton White
01:04:37.290                : :"America the Beautiful," LeAnn Rimes
01:07:27.877                : :Joe talks sience in the tube room
01:12:12.995                : :Sucking in the money (and other things)
01:17:50.249                : :Dayton's Operating System
01:19:20.422                : :Evading the CMS police
01:24:02.913                : :Going home; "Storm Warning"
01:28:33.099                : :Sadie's performance
01:32:41.514                : :The next morning; the FBI arrives
01:42:27.433                : :Joe leaves prison
01:46:07.653                : :"Fortunate Son"
01:50:50.936                : :Bobbie Jo's new home
01:54:55.263                : :End titles



Скриншоты:
[+] Всего файлов в раздаче - 1:
Logan Lucky_2017_BDRip_1080p_[HEVC]_10bit.mkv5.41 GB

Текущая раздача:
ДатаКомментарии    РазмерПиры
2017-12-07 U Удача Логана / Logan Lucky (2017) BDRip-HEVC 1080p от ХиМиК | iTunes 5.41 GB ↑ 419 ↓ 190

Показать еще раздачи по запросу удача:
2017-12-07 U Удача Логана / Logan Lucky (2017) BDRip-AVC от HELLYWOOD | iTunes 2.13 GB ↑ 77 ↓ 81
2017-12-07 U Удача Логана / Logan Lucky (2017) BDRip-AVC от ExKinoRay | iTunes 745.70 MB ↑ 67 ↓ 29
2017-12-07 U Удача Логана / Logan Lucky (2017) BDRip-AVC от HELLYWOOD | iTunes 1.41 GB ↑ 115 ↓ 46
2017-12-07 U Удача Логана / Logan Lucky (2017) HDRip от Scarabey | iTunes 1.39 GB ↑ 596 ↓ 255
2017-12-07 U Удача Логана / Logan Lucky (2017) BDRip 720p от HELLYWOOD | iTunes 4.32 GB ↑ 804 ↓ 386
2017-12-06 U Удача Логана / Logan Lucky (2017) HDRip от Generalfilm | КПК | iTunes 452.85 MB ↑ 42 ↓ 22
2017-12-06 U Удача Логана / Logan Lucky (2017) BDRemux 1080p от ExKinoRay | iTunes 28.76 GB ↑ 59 ↓ 106

Отзывы
Зарегистрируйтесь чтобы добавить комментарий.
Обратная связь
Copyleft ©