↑↓Torrent.by
Поиск
Логин: Регистрация
Пароль: Восстановить пароль
Загрузка...

мама! / mother! (2017) WEB-DLRip-AVC от ExKinoRay | iTunes

Скачать mama-mother-2017-web-dlrip-avc-ot-exkinoray-itunes.torrent
U Магнитная ссылка Размер: 746.24 MB Раздают: 221 Качают: 49 Добавлен: 2017-12-07 00:16:59
мама! / mother! (2017) WEB-DLRip-AVC от ExKinoRay | iTunes

Название: мама!
Оригинальное название: mother!
Год выхода: 2017
Жанр:  Ужасы, триллер, драма
Режиссер: Даррен Аронофски
В ролях: Дженнифер Лоуренс, Хавьер Бардем, Эд Харрис, Мишель Пфайффер, Брин Глисон, Донал Глисон, Йован Адепо, Патриция Саммерсетт, Эрик Дэвис

О фильме :
В центре сюжета семейная пара, отношения которой проходят серьезную проверку на прочность после того как на пороге их дома объявляются незваные гости, нарушающие их беззаботное существование.

Страна: США
Студия: Protozoa Pictures
Продолжительность: 02:01:44
Перевод: Дублированный | iTunes

Файл
Формат: MKV
Качество: WEB-DLRip-AVC
Видео: MPEG-4 AVC, 768x320, ~ 779 Кбит/с
Аудио:  AAC-LC, 2 ch, ~ 76 Кбит/с
Субтитры: Русские, английские

Релиз:


[+] MI
Общее
Уникальный идентификатор : 181303821677391749483552409353145101652 (0x8865D88E371DCE0A974405AA1B9D2D54)
Полное имя : D:MOVIESMother.2017.ExKinoRay.mkv
Формат : Matroska
Версия формата : Version 4 / Version 2
Размер файла : 746 Мбайт
Продолжительность : 2 ч. 1 м.
Общий поток : 857 Кбит/сек
Дата кодирования : UTC 2017-12-06 13:34:58
Программа кодирования : mkvmerge v15.0.0 ('Duel with the Devil') 64-bit
Библиотека кодирования : libebml v1.3.5 + libmatroska v1.4.5

Видео
Идентификатор : 1
Формат : AVC
Формат/Информация : Advanced Video Codec
Профиль формата : High@L4.1
Параметр CABAC формата : Да
Параметр RefFrames формата : 10 кадров
Идентификатор кодека : V_MPEG4/ISO/AVC
Продолжительность : 2 ч. 1 м.
Битрейт : 779 Кбит/сек
Ширина : 768 пикселей
Высота : 320 пикселей
Соотношение сторон : 2,40:1
Режим частоты кадров : Постоянный
Частота кадров : 23,976 (24000/1001) кадра/сек
Цветовое пространство : YUV
Субдискретизация насыщенности : 4:2:0
Битовая глубина : 8 бит
Тип развёртки : Прогрессивная
Бит/(Пиксели*Кадры) : 0.132
Размер потока : 678 Мбайт (91%)
Библиотека кодирования : x264 core 152 r2851kMod ba24899
Настройки программы : cabac=1 / ref=10 / deblock=1:-2:-2 / analyse=0x3:0x133 / me=umh / subme=11 / psy=1 / fade_compensate=0.00 / psy_rd=1.00:0.15 / mixed_ref=1 / me_range=32 / chroma_me=1 / trellis=2 / 8x8dct=1 / cqm=0 / deadzone=21,11 / fast_pskip=0 / chroma_qp_offset=-3 / threads=6 / lookahead_threads=1 / sliced_threads=0 / nr=0 / decimate=0 / interlaced=0 / bluray_compat=0 / constrained_intra=0 / bframes=10 / b_pyramid=2 / b_adapt=2 / b_bias=0 / direct=3 / weightb=1 / open_gop=0 / weightp=2 / keyint=240 / keyint_min=23 / scenecut=40 / intra_refresh=0 / rc_lookahead=40 / rc=2pass / mbtree=1 / bitrate=779 / ratetol=1.0 / qcomp=0.60 / qpmin=0 / qpmax=69 / qpstep=4 / cplxblur=20.0 / qblur=0.5 / vbv_maxrate=50000 / vbv_bufsize=62500 / nal_hrd=none / filler=0 / ip_ratio=1.40 / aq=3:1.00
Default : Да
Forced : Нет

Аудио
Идентификатор : 2
Формат : AAC
Формат/Информация : Advanced Audio Codec
Профиль формата : LC
Идентификатор кодека : A_AAC
Продолжительность : 2 ч. 1 м.
Битрейт : 76,0 Кбит/сек
Каналы : 2 канала
Расположение каналов : Front: L R
Частота : 48,0 КГц
Частота кадров : 46,875 кадров/сек (1024 SPF)
Метод сжатия : С потерями
Задержка видео : 9 мс.
Размер потока : 65,9 Мбайт (9%)
Default : Да
Forced : Нет

Текст #1
Идентификатор : 3
Формат : UTF-8
Идентификатор кодека : S_TEXT/UTF8
Идентификатор кодека/Информация : UTF-8 Plain Text
Продолжительность : 2 ч. 0 м.
Битрейт : 56 бит/сек
ElementCount : 1164
Размер потока : 49,3 Кбайт (0%)
Язык : Russian
Default : Нет
Forced : Нет

Текст #2
Идентификатор : 4
Формат : UTF-8
Идентификатор кодека : S_TEXT/UTF8
Идентификатор кодека/Информация : UTF-8 Plain Text
Продолжительность : 1 ч. 54 м.
Битрейт : 38 бит/сек
ElementCount : 1282
Размер потока : 32,4 Кбайт (0%)
Язык : English
Default : Нет
Forced : Нет

Меню
00:00:00.000 : en:1
00:06:21.000 : en:2
00:10:19.000 : en:3
00:15:57.000 : en:4
00:21:35.000 : en:5
00:24:57.000 : en:6
00:31:28.000 : en:7
00:38:26.000 : en:8
00:44:53.000 : en:9
00:49:31.000 : en:10
00:53:39.000 : en:11
01:02:15.000 : en:12
01:08:19.000 : en:13
01:16:46.000 : en:14
01:20:25.000 : en:15
01:28:20.000 : en:16
01:38:02.000 : en:17
01:45:45.000 : en:18
01:49:41.000 : en:19
01:56:13.000 : en:20



Скриншоты:
[+] Всего файлов в раздаче - 1:
Mother.2017.ExKinoRay.mkv746.24 MB

Текущая раздача:
ДатаКомментарии    РазмерПиры
2017-12-07 U мама! / mother! (2017) WEB-DLRip-AVC от ExKinoRay | iTunes 746.24 MB ↑ 221 ↓ 49

Показать еще раздачи по запросу мама:
Сегодня U мама! / mother! (2017) BDRip 1080p от MegaPeer & qqss44 | iTunes 7.53 GB ↑ 51 ↓ 20
2017-12-14 U мама! / mother! (2017) BDRip 720p от Scarabey | iTunes 6.14 GB ↑ 334 ↓ 27
2017-12-12 U мама! / mother! (2017) BDRip 720p от HELLYWOOD | iTunes 4.32 GB ↑ 40 ↓ 15
2017-12-11 U мама! / mother! (2017) BDRemux 1080p от ExKinoRay | iTunes 28.42 GB ↑ 53 ↓ 74
2017-12-11 U мама! / mother! (2017) BDRip от MegaPeer | iTunes 1.41 GB ↑ 235 ↓ 107
2017-12-10 U мама! / mother! (2017) HDRip от Scarabey | iTunes 745.59 MB ↑ 50 ↓ 20
2017-12-09 U мама! / mother! (2017) HDRip от Scarabey | iTunes 1.39 GB ↑ 1663 ↓ 397

Отзывы
Зарегистрируйтесь чтобы добавить комментарий.
Обратная связь
Copyleft ©