↑↓Torrent.by
Поиск
Логин: Регистрация
Пароль: Восстановить пароль
Загрузка...

Долина костей / Valley of Bones (2017) WEBRip | L2

Скачать dolina-kostey-valley-of-bones-2017-webrip-l2.torrent
U Магнитная ссылка Размер: 1.25 GB Раздают: 80 Качают: 66 Добавлен: 2017-12-07 00:17:18
Долина костей / Valley of Bones (2017) WEBRip | L2

Название: Долина костей
Оригинальное название: Valley of Bones

Год выхода: 2017
Жанр: Триллер, криминал, вестерн
Режиссер: Дэн Глейсер
В ролях: Отем Ризер, Риз Койро, Стив Молони, Mason Mahay, Александра Биллингс, Билл Смитрович, Марк Марголис, Мьюз Уотсон, Билл Даблоу и другие
О фильме:
Анна- мать одиночка, занимающаяся раскопками. Кости и окаменелости, это все, чем она живет. Однажды, брат её бывшего мужа сообщает, что один его знакомый обнаружил зуб динозавра. Они решают отправиться на раскопки, однако они не знали, что этот знакомый задолжал картелю круглую сумму денег.

Страна: США, Bad Medicine Films, Unmarked Van Films, New Heits Entertainment
Продолжительность: 01:30:52
Перевод: Любительский (двухголосый закадровый) | RecentFilms

Файл
Кодек: XviD
Качество: WEBRip
Видео: 720x304, 23,976 fps, ~1771  Kbps, 0.34 bit/pixel
Звук:
Аудио rus: AC3, 48 kHz, 2 ch, 192 Kbps
Субтитры: отсутствуют
Реклама: присутствует

Семпл

Релиз от: RecentFilms


[+] MediaInfo:

General
Complete name                            : F:FilmsValley.of.Bones.2017.WEBRip.RecentFilmsValley.of.Bones.2017.WEBRip.RecentFilms.avi
Format                                   : AVI
Format/Info                              : Audio Video Interleave
File size                                : 1.25 GiB
Duration                                 : 1h 30mn
Overall bit rate                         : 1 973 Kbps
Writing application                      : VirtualDubMod 1.5.10.3 (build 2550/release)
Writing library                          : VirtualDubMod build 2550/release

Video
ID                                       : 0
Format                                   : MPEG-4 Visual
Format profile                           : Advanced Simple@L5
Format settings, BVOP                    : 1
Format settings, QPel                    : No
Format settings, GMC                     : No warppoints
Format settings, Matrix                  : Default (H.263)
Codec ID                                 : XVID
Codec ID/Hint                            : XviD
Duration                                 : 1h 30mn
Bit rate                                 : 1 771 Kbps
Width                                    : 720 pixels
Height                                   : 304 pixels
Display aspect ratio                     : 2.35:1
Frame rate                               : 23.976 (23976/1000) fps
Color space                              : YUV
Chroma subsampling                       : 4:2:0
Bit depth                                : 8 bits
Scan type                                : Progressive
Compression mode                         : Lossy
Bits/(Pixel*Frame)                       : 0.338
Stream size                              : 1.12 GiB (90%)
Writing library                          : XviD 73

Audio
ID                                       : 1
Format                                   : AC-3
Format/Info                              : Audio Coding 3
Mode extension                           : CM (complete main)
Format settings, Endianness              : Big
Codec ID                                 : 2000
Duration                                 : 1h 30mn
Bit rate mode                            : Constant
Bit rate                                 : 192 Kbps
Channel(s)                               : 2 channels
Channel positions                        : Front: L R
Sampling rate                            : 48.0 KHz
Frame rate                               : 31.250 fps (1536 spf)
Compression mode                         : Lossy
Stream size                              : 125 MiB (10%)
Alignment                                : Split accross interleaves
Interleave, duration                     : 42 ms (1.00 video frame)
Interleave, preload duration             : 500 ms




Скриншоты:
[+] Всего файлов в раздаче - 1:
Valley.of.Bones.2017.WEBRip.RecentFilms.avi1.25 GB

Текущая раздача:
ДатаКомментарии    РазмерПиры
2017-12-07 U Долина костей / Valley of Bones (2017) WEBRip | L2 1.25 GB ↑ 80 ↓ 66

Показать еще раздачи по запросу долина:
2017-12-07 U Долина костей / Valley of Bones (2017) WEBRip 720p | L2 2.33 GB ↑ 57 ↓ 44
2017-07-03 U Кремниевая долина / Silicon Valley [S04] (2017) WEBRip | Кубик в Кубе 3.91 GB ↑ 101 ↓ 98
2017-06-28 U Долина снежного человека / Valley of the Sasquatch (2015) WEB-DLRip | L 699.83 MB ↑ 75 ↓ 25
2017-06-28 U Долина снежного человека / Valley of the Sasquatch (2015) WEB-DLRip | L 1К1.37 GB ↑ 74 ↓ 36
2017-06-25 U Кремниевая долина / Silicon Valley [04x01-09 из 10] (2017) WEBRip | Кубик в Кубе 3.52 GB ↑ 95 ↓ 138
2017-05-03 U Кремниевая долина / Silicon Valley [04x01 из 10] (2017) WEBRip | Кубик в Кубе 1К400.22 MB ↑ 35 ↓ 9
2017-04-24 U Кремниевая долина / Silicon Valley [04х01 из 10] (2017) HDTVRip 720p | SunshineStudio 420.94 MB ↑ 106 ↓ 23

Отзывы
Зарегистрируйтесь чтобы добавить комментарий.
Обратная связь
Copyleft ©