↑↓Torrent.by
Поиск
Логин: Регистрация
Пароль: Восстановить пароль
Загрузка...

Сделано в Америке / American Made (2017) BDRip-AVC от ExKinoRay | iTunes

Скачать sdelano-v-amerike-american-made-2017-bdrip-avc-ot-exkinoray-itunes.torrent
U Магнитная ссылка Размер: 2.42 GB Раздают: 132 Качают: 172 Добавлен: 2017-12-07 11:09:20
Сделано в Америке / American Made (2017) BDRip-AVC от ExKinoRay | iTunes

Информация о фильме
Название: Сделано в Америке
Оригинальное название: American Made
Год выпуска: 2017
Жанр: Боевик, триллер, драма, комедия, криминал, биография, история
Режиссер: Даг Лайман
В ролях: Том Круз, Донал Глисон, Сара Райт, Джесси Племонс, Калеб Лэндри Джонс, Лола Кёрк, Джейма Мейс, Алехандро Эдда, Бенито Мартинес, Э. Роджер Митчелл

Описание:  
Он был самым юным пилотом Боинга 747 в США, а уже через несколько лет стал одним из богатейших людей в Америке. Его стиль жизни был столь же экстремальным, как и его бизнес. Закрытые приемы, роскошные блондинки, крутые тачки и рисковые сделки. Он обладал талантом делать деньги из воздуха.

Страна: США
Студия: Cross Creek Pictures, Imagine Entertainment, Quadrant Pictures, Vendian Entertainment
Продолжительность: 01:54:58
Перевод: Дублированный | iTunes
Субтитры: Английские

Файл
Формат: MKV
Качество: BDRip-AVC
Видео: MPEG-4 AVC, 1024x552 (1.85:1), 2174 Kbit/s, 23.976 fps, 0,160 bpp
Звук:
Аудио1: 48 kHz, AC3, 5.1, 384 Kbps | RUS
Аудио2: 48 kHz, AC3, 5.1, 448 Kbps | Eng

Без какой-либо рекламы
Навигация по главам: есть

Релиз:

Автор релиза:


[+] МИ
General
Unique ID                                : 175718862768970449210830329393419642914 (0x843238D25F9662889062F3756DFFE822)
Complete name                            : D:US.Made.2017.D.BDRip.AVC.ExKinoRay.mkv
Format                                   : Matroska
Format version                           : Version 2
File size                                : 2.42 GiB
Duration                                 : 1 h 54 min
Overall bit rate                         : 3 008 kb/s
Movie name                               : American Made 2017 from ExKinoRay
Encoded date                             : UTC 2017-12-07 04:55:09
Writing application                      : mkvmerge v5.6.0 ('Kenya Kane') built on May 27 2012 16:44:04
Writing library                          : libebml v1.2.3 + libmatroska v1.3.0

Video
ID                                       : 1
Format                                   : AVC
Format/Info                              : Advanced Video Codec
Format profile                           : High@L4.1
Format settings, CABAC                   : Yes
Format settings, ReFrames                : 12 frames
Codec ID                                 : V_MPEG4/ISO/AVC
Duration                                 : 1 h 54 min
Bit rate                                 : 2 174 kb/s
Width                                    : 1 024 pixels
Height                                   : 552 pixels
Display aspect ratio                     : 1.85:1
Frame rate mode                          : Constant
Frame rate                               : 23.976 (23976/1000) FPS
Color space                              : YUV
Chroma subsampling                       : 4:2:0
Bit depth                                : 8 bits
Scan type                                : Progressive
Bits/(Pixel*Frame)                       : 0.160
Stream size                              : 1.70 GiB (70%)
Title                                    : Enigma
Writing library                          : x264 core 152 r2851 ba24899
Encoding settings                        : cabac=1 / ref=12 / deblock=1:-3:-3 / analyse=0x3:0x113 / me=umh / subme=10 / psy=1 / psy_rd=1.00:0.05 / mixed_ref=1 / me_range=32 / chroma_me=1 / trellis=2 / 8x8dct=1 / cqm=0 / deadzone=21,11 / fast_pskip=0 / chroma_qp_offset=-3 / threads=12 / lookahead_threads=3 / sliced_threads=0 / nr=0 / decimate=0 / interlaced=0 / bluray_compat=0 / constrained_intra=0 / bframes=10 / b_pyramid=2 / b_adapt=2 / b_bias=0 / direct=3 / weightb=1 / open_gop=0 / weightp=2 / keyint=240 / keyint_min=23 / scenecut=40 / intra_refresh=0 / rc_lookahead=40 / rc=2pass / mbtree=0 / bitrate=2174 / ratetol=1.0 / qcomp=0.65 / qpmin=0 / qpmax=51 / qpstep=4 / cplxblur=20.0 / qblur=0.5 / vbv_maxrate=50000 / vbv_bufsize=62500 / nal_hrd=none / filler=0 / ip_ratio=1.40 / pb_ratio=1.30 / aq=3:0.80
Language                                 : English
Default                                  : Yes
Forced                                   : No
Color range                              : Limited
Color primaries                          : BT.709
Transfer characteristics                 : BT.709
Matrix coefficients                      : BT.709

Audio #1
ID                                       : 2
Format                                   : AC-3
Format/Info                              : Audio Coding 3
Mode extension                           : CM (complete main)
Format settings, Endianness              : Big
Codec ID                                 : A_AC3
Duration                                 : 1 h 54 min
Bit rate mode                            : Constant
Bit rate                                 : 384 kb/s
Channel(s)                               : 6 channels
Channel positions                        : Front: L C R, Side: L R, LFE
Sampling rate                            : 48.0 kHz
Frame rate                               : 31.250 FPS (1536 spf)
Compression mode                         : Lossy
Stream size                              : 316 MiB (13%)
Title                                    : iTunes
Language                                 : Russian
Default                                  : Yes
Forced                                   : No

Audio #2
ID                                       : 3
Format                                   : AC-3
Format/Info                              : Audio Coding 3
Mode extension                           : CM (complete main)
Format settings, Endianness              : Big
Codec ID                                 : A_AC3
Duration                                 : 1 h 54 min
Bit rate mode                            : Constant
Bit rate                                 : 448 kb/s
Channel(s)                               : 6 channels
Channel positions                        : Front: L C R, Side: L R, LFE
Sampling rate                            : 48.0 kHz
Frame rate                               : 31.250 FPS (1536 spf)
Compression mode                         : Lossy
Stream size                              : 368 MiB (15%)
Language                                 : English
Default                                  : No
Forced                                   : No

Text
ID                                       : 4
Format                                   : UTF-8
Codec ID                                 : S_TEXT/UTF8
Codec ID/Info                            : UTF-8 Plain Text
Language                                 : English
Default                                  : No
Forced                                   : No

Menu
00:00:00.000                             : en:Chapter 1
00:06:00.318                             : en:Chapter 2
00:10:42.516                             : en:Chapter 3
00:14:36.500                             : en:Chapter 4
00:21:19.611                             : en:Chapter 5
00:27:25.226                             : en:Chapter 6
00:33:47.692                             : en:Chapter 7
00:41:02.585                             : en:Chapter 8
00:46:16.023                             : en:Chapter 9
00:51:57.114                             : en:Chapter 10
00:54:59.713                             : en:Chapter 11
00:59:58.177                             : en:Chapter 12
01:07:29.837                             : en:Chapter 13
01:13:06.507                             : en:Chapter 14
01:17:12.878                             : en:Chapter 15
01:23:21.329                             : en:Chapter 16
01:26:16.713                             : en:Chapter 17
01:33:34.483                             : en:Chapter 18
01:38:39.455                             : en:Chapter 19
01:46:16.953                             : en:Chapter 20




Скриншоты:
[+] Всего файлов в раздаче - 1:
US.Made.2017.D.BDRip.AVC.ExKinoRay.mkv2.42 GB

Текущая раздача:
ДатаКомментарии    РазмерПиры
2017-12-07 U Сделано в Америке / American Made (2017) BDRip-AVC от ExKinoRay | iTunes 2.42 GB ↑ 132 ↓ 172

Показать еще раздачи по запросу сделано:
Сегодня U Сделано в Америке / American Made (2017) BDRip от ExKinoRay | Лицензия 2.18 GB ↑ 83 ↓ 23
Сегодня U Сделано в Америке / American Made (2017) BDRip от HQ-ViDEO | Лицензия 2.18 GB ↑ 73 ↓ 39
Сегодня U Сделано в Америке / American Made (2017) BDRip от MegaPeer | Лицензия 2.18 GB ↑ 33 ↓ 11
Сегодня U Сделано в Америке / American Made (2017) BDRip 1080p от MegaPeer & qqss44 | Лицензия 7.59 GB ↑ 168 ↓ 46
Вчера U Сделано в Америке / American Made (2017) BDRip-AVC от ExKinoRay | Лицензия 748.19 MB ↑ 75 ↓ 25
Вчера U Сделано в Америке / American Made (2017) BDRip 1080p от MegaPeer & qqss44 | Лицензия 7.59 GB ↑ 119 ↓ 160
Вчера U Сделано в Америке / American Made (2017) BDRip от ExKinoRay | Лицензия 1.46 GB ↑ 97 ↓ 81

Отзывы
Зарегистрируйтесь чтобы добавить комментарий.
Обратная связь
Copyleft ©