↑↓Torrent.by
Поиск
Логин: Регистрация
Пароль: Восстановить пароль
Загрузка...

Ужин / The Dinner (2017) BDRip 1080р от ExKinoRay | iTunes

Скачать uzhin-the-dinner-2017-bdrip-1080r-ot-exkinoray-itunes.torrent
U Магнитная ссылка Размер: 11.98 GB Раздают: 87 Качают: 116 Добавлен: 2017-12-07 11:09:40
Ужин / The Dinner (2017) BDRip 1080р от ExKinoRay | iTunes

Название: Ужин
Оригинальное название: The Dinner
Год выхода: 2017
Жанр: Триллер, детектив
Режиссер: Орен Муверман
В ролях: Ричард Гир, Лора Линни, Стив Кугэн, Ребекка Холл, Хлоя Севиньи, Чарли Пламмер, Эдеперо Одуйе, Майкл Чернус, Джоэль Биссоннет

О фильме:
Один вечер в ресторане. Две семьи за столом: будущий премьер-министр Стэн Ломан и его брат Пол с женами. Изысканный ужин превращается в поле битвы, а судьба их детей — в разменную монету. Как далеко способен зайти отец, чтобы защитить сына, совершившего преступление?

Страна: США
Студия: Blackbird
Продолжительность: 02:00:26
Перевод: Дублированный | iTunes

Файл
Качество: BDRip 1080p
Видео: MPEG-4 AVC, 1920x1038, 12.3 Mbit/s, 23.976 fps
Звук:
Аудио #01: 48 kHz, AC3, 5.1, 384 Kbps | Дублированный | iTunes | RUS |
Аудио #02: 48 kHz, DTS, 5.1, 1510 Kbps | Оригинал |  ENG |
Субтитры: Английские

Релиз: Автор релиза:


[+] MI
General
Unique ID                   : 182887709309680873206568534420683284930 (0x8996E43EB7A1E309A30002E0ED80E1C2)
Complete name               : G:VideoSSDThe.Dinner.2017.BDRip.1080p.ExKinoRay.mkv
Format                      : Matroska
Format version              : Version 4 / Version 2
File size                   : 12.0 GiB
Duration                    : 2 h 0 min
Overall bit rate            : 14.2 Mb/s
Movie name                  : The Dinner 2017 from ExKinoRay
Encoded date                : UTC 2017-12-06 21:14:41
Writing application         : mkvmerge v18.0.0 ('Apricity') 64-bit
Writing library             : libebml v1.3.5 + libmatroska v1.4.8

Video
ID                          : 1
Format                      : AVC
Format/Info                 : Advanced Video Codec
Format profile              : High@L4.1
Format settings             : CABAC / 4 Ref Frames
Format settings, CABAC      : Yes
Format settings, RefFrames  : 4 frames
Codec ID                    : V_MPEG4/ISO/AVC
Duration                    : 2 h 0 min
Bit rate                    : 12.3 Mb/s
Width                       : 1 920 pixels
Height                      : 1 038 pixels
Display aspect ratio        : 1.85:1
Frame rate mode             : Constant
Frame rate                  : 23.976 (24000/1001) FPS
Color space                 : YUV
Chroma subsampling          : 4:2:0
Bit depth                   : 8 bits
Scan type                   : Progressive
Bits/(Pixel*Frame)          : 0.258
Stream size                 : 10.4 GiB (87%)
Writing library             : x264 core 148 r2699+6+41 29a38aa Yuuki [8-bit@4:2:0 X86_64][GCC 5.3.0]
Encoding settings           : cabac=1 / ref=4 / deblock=1:-3:-3 / analyse=0x3:0x113 / me=umh / subme=11 / psy=1 / fade_compensate=0.00 / psy_rd=1.00:0.05 / mixed_ref=1 / me_range=32 / chroma_me=1 / trellis=2 / 8x8dct=1 / cqm=0 / deadzone=21,11 / fast_pskip=0 / chroma_qp_offset=-2 / threads=24 / lookahead_threads=4 / sliced_threads=0 / nr=0 / decimate=1 / interlaced=0 / bluray_compat=0 / constrained_intra=0 / fgo=0 / bframes=8 / b_pyramid=2 / b_adapt=2 / b_bias=0 / direct=3 / weightb=1 / open_gop=0 / weightp=2 / keyint=250 / keyint_min=23 / scenecut=40 / intra_refresh=0 / rc_lookahead=40 / rc=crf / mbtree=0 / crf=19.5000 / qcomp=0.60 / qpmin=0:0:0 / qpmax=69:69:69 / qpstep=4 / vbv_maxrate=50000 / vbv_bufsize=40000 / crf_max=0.0 / nal_hrd=none / filler=0 / ip_ratio=1.40 / pb_ratio=1.30 / aq=3:0.90
Language                    : English
Default                     : Yes
Forced                      : No

Audio #1
ID                          : 2
Format                      : AC-3
Format/Info                 : Audio Coding 3
Format settings, Endianness : Big
Codec ID                    : A_AC3
Duration                    : 2 h 0 min
Bit rate mode               : Constant
Bit rate                    : 384 kb/s
Channel(s)                  : 6 channels
Channel positions           : Front: L C R, Side: L R, LFE
Sampling rate               : 48.0 kHz
Frame rate                  : 31.250 FPS (1536 SPF)
Bit depth                   : 16 bits
Compression mode            : Lossy
Stream size                 : 331 MiB (3%)
Title                       : iTunes
Language                    : Russian
Service kind                : Complete Main
Default                     : Yes
Forced                      : No

Audio #2
ID                          : 3
Format                      : DTS
Format/Info                 : Digital Theater Systems
Mode                        : 16
Format settings, Endianness : Big
Codec ID                    : A_DTS
Duration                    : 2 h 0 min
Bit rate mode               : Constant
Bit rate                    : 1 509 kb/s
Channel(s)                  : 6 channels
Channel positions           : Front: L C R, Side: L R, LFE
Sampling rate               : 48.0 kHz
Frame rate                  : 93.750 FPS (512 SPF)
Bit depth                   : 24 bits
Compression mode            : Lossy
Stream size                 : 1.27 GiB (11%)
Title                       : Original
Language                    : English
Default                     : No
Forced                      : No

Text
ID                          : 4
Format                      : UTF-8
Codec ID                    : S_TEXT/UTF8
Codec ID/Info               : UTF-8 Plain Text
Duration                    : 1 h 59 min
Bit rate                    : 88 b/s
Count of elements           : 2134
Stream size                 : 77.2 KiB (0%)
Title                       : Full
Language                    : English
Default                     : No
Forced                      : No

Menu
00:00:00.000                : en:00:00:00.000
00:10:47.814                : en:00:10:47.814
00:22:17.711                : en:00:22:17.711
00:30:58.607                : en:00:30:58.607
00:40:39.187                : en:00:40:39.187
00:50:19.225                : en:00:50:19.225
00:58:53.029                : en:00:58:53.029
01:10:22.218                : en:01:10:22.218
01:24:43.704                : en:01:24:43.704
01:37:09.073                : en:01:37:09.073
01:45:30.282                : en:01:45:30.282
01:54:20.854                : en:01:54:20.854



Скриншоты:
[+] Всего файлов в раздаче - 1:
The.Dinner.2017.BDRip.1080p.ExKinoRay.mkv11.98 GB

Текущая раздача:
ДатаКомментарии    РазмерПиры
2017-12-07 U Ужин / The Dinner (2017) BDRip 1080р от ExKinoRay | iTunes 11.98 GB ↑ 87 ↓ 116

Показать еще раздачи по запросу ужин:
2017-12-14 U Ужин / The Dinner (2017) BDRip от ExKinoRay | iTunes 1.41 GB ↑ 120 ↓ 44
2017-12-10 U Ужин / The Dinner (2017) HDRip от Kaztorrents | КПК | iTunes 457.99 MB ↑ 69 ↓ 21
2017-12-08 U Ужин / The Dinner (2017) BDRip-AVC от ExKinoRay | iTunes 2.58 GB ↑ 130 ↓ 72
2017-12-08 U Ужин / The Dinner (2017) BDRip-AVC от ExKinoRay | iTunes 745.79 MB ↑ 45 ↓ 13
2017-12-07 U Ужин / The Dinner (2017) BDRip от MegaPeer | iTunes 1.41 GB ↑ 276 ↓ 142
2017-08-11 U Весёлый ужин мамочек / Fun Mom Dinner (2017) WEB-DLRip | L 1.34 GB ↑ 180 ↓ 77
2016-07-11 U Незаконченный ужин / Nepabeigtās vakariņas (1979) SATRip 1.37 GB ↑ 177 ↓ 8

Отзывы
Зарегистрируйтесь чтобы добавить комментарий.
Обратная связь
Copyleft ©