↑↓Torrent.by
Поиск
Логин: Регистрация
Пароль: Восстановить пароль
Загрузка...

Долина костей / Valley of Bones (2017) WEBRip 720p | L2

Скачать dolina-kostey-valley-of-bones-2017-webrip-720p-l2.torrent
U Магнитная ссылка Размер: 2.33 GB Раздают: 57 Качают: 44 Добавлен: 2017-12-07 11:09:57
Долина костей / Valley of Bones (2017) WEBRip 720p | L2

Название: Долина костей
Оригинальное название: Valley of Bones

Год выхода: 2017
Жанр: Триллер, криминал, вестерн
Режиссер: Дэн Глейсер
В ролях: Отем Ризер, Риз Койро, Стив Молони, Mason Mahay, Александра Биллингс, Билл Смитрович, Марк Марголис, Мьюз Уотсон, Билл Даблоу и другие
О фильме:
Анна- мать одиночка, занимающаяся раскопками. Кости и окаменелости, это все, чем она живет. Однажды, брат её бывшего мужа сообщает, что один его знакомый обнаружил зуб динозавра. Они решают отправиться на раскопки, однако они не знали, что этот знакомый задолжал картелю круглую сумму денег.

Страна: США, Bad Medicine Films, Unmarked Van Films, New Heits Entertainment
Продолжительность: 01:30:52
Перевод: Любительский (двухголосый закадровый) | RecentFilms

Файл
Кодек: MPEG-4 AVC/H.264
Качество: WEBRip 720p
Видео: 1280x528, 23,976 fps, ~3409 Kbps, 0.210 bit/pixel
Звук:
Аудио rus: AC3, 48 kHz, 2 ch, 192 Kbps
Субтитры: отсутствуют
Реклама: присутствует

Семпл

Релиз от: RecentFilms


[+] MediaInfo:

General
Unique ID                                : 215343353140980344049321895904502401791 (0xA2019F07DFBB13C093FA54B847A8CAFF)
Complete name                            : F:FilmsValley.of.Bones.2017.720p.WEBRip.RecentFilmsValley.of.Bones.2017.720p.WEBRip.RecentFilms.mkv
Format                                   : Matroska
Format version                           : Version 4 / Version 2
File size                                : 2.33 GiB
Duration                                 : 1h 30mn
Overall bit rate                         : 3 674 Kbps
Encoded date                             : UTC 2017-12-06 18:03:40
Writing application                      : mkvmerge v18.0.0 ('Apricity') 64-bit
Writing library                          : libebml v1.3.5 + libmatroska v1.4.8

Video
ID                                       : 1
Format                                   : AVC
Format/Info                              : Advanced Video Codec
Format profile                           : Main@L3.1
Format settings, CABAC                   : Yes
Format settings, ReFrames                : 3 frames
Codec ID                                 : V_MPEG4/ISO/AVC
Duration                                 : 1h 30mn
Bit rate                                 : 3 409 Kbps
Width                                    : 1 280 pixels
Height                                   : 528 pixels
Display aspect ratio                     : 2.40:1
Frame rate mode                          : Constant
Frame rate                               : 23.976 (24000/1001) fps
Standard                                 : NTSC
Color space                              : YUV
Chroma subsampling                       : 4:2:0
Bit depth                                : 8 bits
Scan type                                : Progressive
Bits/(Pixel*Frame)                       : 0.210
Stream size                              : 2.16 GiB (93%)
Language                                 : English
Default                                  : Yes
Forced                                   : No
Color range                              : Limited
Color primaries                          : BT.601 NTSC
Transfer characteristics                 : BT.601
Matrix coefficients                      : BT.601

Audio
ID                                       : 2
Format                                   : AC-3
Format/Info                              : Audio Coding 3
Mode extension                           : CM (complete main)
Format settings, Endianness              : Big
Codec ID                                 : A_AC3
Duration                                 : 1h 30mn
Bit rate mode                            : Constant
Bit rate                                 : 192 Kbps
Channel(s)                               : 2 channels
Channel positions                        : Front: L R
Sampling rate                            : 48.0 KHz
Frame rate                               : 31.250 fps (1536 spf)
Compression mode                         : Lossy
Stream size                              : 125 MiB (5%)
Title                                    : rus
Language                                 : Russian
Default                                  : Yes
Forced                                   : No




Скриншоты:
[+] Всего файлов в раздаче - 1:
Valley.of.Bones.2017.720p.WEBRip.RecentFilms.mkv2.33 GB

Текущая раздача:
ДатаКомментарии    РазмерПиры
2017-12-07 U Долина костей / Valley of Bones (2017) WEBRip 720p | L2 2.33 GB ↑ 57 ↓ 44

Показать еще раздачи по запросу долина:
2017-12-07 U Долина костей / Valley of Bones (2017) WEBRip | L2 1.25 GB ↑ 80 ↓ 66
2017-07-03 U Кремниевая долина / Silicon Valley [S04] (2017) WEBRip | Кубик в Кубе 3.91 GB ↑ 101 ↓ 98
2017-06-28 U Долина снежного человека / Valley of the Sasquatch (2015) WEB-DLRip | L 699.83 MB ↑ 75 ↓ 25
2017-06-28 U Долина снежного человека / Valley of the Sasquatch (2015) WEB-DLRip | L 1К1.37 GB ↑ 74 ↓ 36
2017-06-25 U Кремниевая долина / Silicon Valley [04x01-09 из 10] (2017) WEBRip | Кубик в Кубе 3.52 GB ↑ 95 ↓ 138
2017-05-03 U Кремниевая долина / Silicon Valley [04x01 из 10] (2017) WEBRip | Кубик в Кубе 1К400.22 MB ↑ 35 ↓ 9
2017-04-24 U Кремниевая долина / Silicon Valley [04х01 из 10] (2017) HDTVRip 720p | SunshineStudio 420.94 MB ↑ 106 ↓ 23

Отзывы
Зарегистрируйтесь чтобы добавить комментарий.
Обратная связь
Copyleft ©