↑↓Torrent.by
Поиск
Логин: Регистрация
Пароль: Восстановить пароль
Загрузка...

Теория большого взрыва / The Big Bang Theory [11x01-09 из 24] (2017) WEB-DL 1080p | Кураж-Бамбей

Скачать teoriya-bolshogo-vzryva-the-big-bang-theory-11x01-09-iz-24-2017-web-dl-1080p-kurazh-bambey.torrent
U Магнитная ссылка Размер: 7.90 GB Раздают: 45 Качают: 115 Добавлен: 2017-12-07 11:14:01
Теория большого взрыва / The Big Bang Theory [11x01-09 из 24] (2017) WEB-DL 1080p | Кураж-Бамбей

Название: Теория большого взрыва
Оригинальное название: The Big Bang Theory
Год выхода: 2017
Жанр: Ситком, комедия

Режиссер: Марк Сендроуски, Питер Чакос, Энтони Джозеф Рич

В ролях: Джонни Галэки, Джим Парсонс, Кейли Куоко, Саймон Хелберг, Кунал Найяр, Майем Биалик, Мелисса Рауш, Кэрол Энн Сьюзи, Кевин Суссман, Арти Манн, Брайан Джордж, Элис Эмтер, Сара Гилберт, Джон Росс Боуи, Уил Уитон, Лори Меткаф, Верни Уотсон-Джонсон, Кристин Барански, Джошуа Малина, Кейси Сэндер, Кэти Леклерк

О фильме:
Два блестящих физика, Леонард и Шелдон, «великие умы», которые понимают, как «работает Вселенная». Но их гениальность ничуть не помогает им общаться с людьми, особенно с женщинами. Всё начинает меняться, когда напротив них поселяется красавица Пенни.
Когда Леонард и Шелдон встречают Пенни, Леонард сразу же начинает интересоваться ею. Он видит в общении с Пенни огромную перспективу, вплоть до любви, однако Шелдон понимает, что мечтам его друга не суждено сбыться.
Стоит также отметить пару странных друзей этих физиков: Воловиц, который любит употреблять фразы на разных языках, включая русский, и Раджеш Кутрапали, теряющий дар речи при виде женщин.

Страна: США
Продолжительность серии: ~ 00:20:00
Перевод: Профессиональный (одноголосый закадровый) | Кураж-Бамбей

Файл
Кодек: x.264
Качество: WEB-DL 1080p
Видео: AVC, 1912x1072 (16:9), 23.976 fps, 5 197 Kbps
Звук #1: AAC LC, 48.0 KHz, 2 ch, 122 Kbps, VBR (Russian)
Звук #2: AC-3, 48.0 KHz, 6 ch, 384 Kbps, CBR (Russian)
Звук #3: AAC LC, 48.0 KHz, 2 ch, 152 Kbps, VBR (English)
Звук #4: AC-3, 48.0 KHz, 6 ch, 384 Kbps, CBR (English)
Субтитры: Английские

Рекламы нет

06.12.17 Исправлен звук в 9й серии, перезалит торент
Спасибо за отзывы и сигнал.



[+] MI
General
Complete name               : F:TempThe Big Bang TheorySeason 118 The Tesla Recoil (1080p HD).m4v
Format                      : MPEG-4
Codec ID                    : M4V  (M4V /mp42/isom)
File size                   : 842 MiB
Duration                    : 18 min 50 s
Overall bit rate mode       : Variable
Overall bit rate            : 6 250 kb/s
Collection                  : The Big Bang Theory
Season                      : 11
Album                       : The Big Bang Theory, Season 11
Album/Sorted by             : The Big Bang Theory, Season 11
Album/Performer             : The Big Bang Theory
Part                        : 8
Part/Position               : 1
Part/Total                  : 1
Track name                  : The Tesla Recoil
Track name/Position         : 8
Track name/Total            : 24
Performer                   : The Big Bang Theory
Performer/Sorted by         : The Big Bang Theory
Genre                       : Comedy
ContentType                 : TV Show
Deion                 : Leonard and Howard are furious when they learn that Sheldon went to work with the military behind / Leonard and Sheldon are brilliant physicists – geniuses in the laboratory but socially challenged everywhere else. Enter beautiful, street-smart neighbor Penny, who aims to teach them a thing or two about life. Despite their on-again, off-again relationship in the past, Leonard and Penny have finally gotten married. Even Sheldon has found a female companion, entering into a “relationship agreement” with neurobiologist Amy Farrah Fowler, and he recently took their relationship to the next level by proposing marriage. In their free time, Leonard and Sheldon enjoy fantasy role-playing games with their ever-expanding universe of friends, including fellow scientists Raj, Howard and Howard’s adorable microbiologist wife, Bernadette, who is adjusting to life with their new baby girl.
Recorded date               : UTC 2017-11-16 08:00:00
Encoded date                : UTC 2017-11-16 18:39:13
Tagged date                 : UTC 2017-11-16 18:39:16
Copyright                   : BIG BANG THEORY and all related characters and elements are trademarks of and © Warner Bros. Entertainment Inc. All Rights Reserved.
Cover                       : Yes
Rating                      : None
AppleStoreCatalogID         : 1314446525
AlbumTitleID                : 264032462
PlayListID                  : 1271833178
GenreID                     : 4000
Part_ID                     : 1108
Title/Sort                  : Tesla Recoil
ContentRating               : us-tv||0|
LongDeion             : Leonard and Howard are furious when they learn that Sheldon went to work with the military behind their backs. While Bernadette is on bed rest, she asks Raj to investigate when she suspects Ruchi might be trying to steal her job. Guest star DEAN NORRIS returns as Colonel Williams.
TVNetworkName               : CBS
Vendor                      : WarnerBrosEnt:vendor_id:888574559441
Flavour                     : 18:1080p
AppleStoreCountry           : United States

Video
ID                          : 1
Format                      : AVC
Format/Info                 : Advanced Video Codec
Format profile              : High@L4
Format settings, CABAC      : Yes
Format settings, RefFrames  : 4 frames
Codec ID                    : avc1
Codec ID/Info               : Advanced Video Coding
Duration                    : 18 min 50 s
Bit rate                    : 5 197 kb/s
Maximum bit rate            : 13.1 Mb/s
Width                       : 1 912 pixels
Height                      : 1 072 pixels
Display aspect ratio        : 16:9
Frame rate mode             : Constant
Frame rate                  : 23.976 (24000/1001) FPS
Color space                 : YUV
Chroma subsampling          : 4:2:0
Bit depth                   : 8 bits
Scan type                   : Progressive
Bits/(Pixel*Frame)          : 0.106
Stream size                 : 700 MiB (83%)
Title                       : Core Media Video
Language                    : English
Encoded date                : UTC 2017-11-16 18:39:13
Tagged date                 : UTC 2017-11-16 18:39:16
Color range                 : Limited
Color primaries             : BT.709
Transfer characteristics    : BT.709
Matrix coefficients         : BT.709

Audio #1
ID                          : 2
Format                      : AAC
Format/Info                 : Advanced Audio Codec
Format profile              : LC
Codec ID                    : 40
Duration                    : 18 min 50 s
Bit rate mode               : Variable
Bit rate                    : 122 kb/s
Maximum bit rate            : 203 kb/s
Channel(s)                  : 2 channels
Channel positions           : Front: L R
Sampling rate               : 48.0 kHz
Frame rate                  : 46.875 FPS (1024 SPF)
Compression mode            : Lossy
Stream size                 : 16.4 MiB (2%)
Title                       : Core Media Audio
Language                    : Russian
Default                     : Yes
Alternate group             : 1
Encoded date                : UTC 2017-11-16 18:39:13
Tagged date                 : UTC 2017-11-16 18:39:16
Fallback From               : 3
tagc                        : public.translation.voice-over

Audio #2
ID                          : 3
Format                      : AC-3
Format/Info                 : Audio Coding 3
Format settings, Endianness : Big
Codec ID                    : ac-3
Duration                    : 18 min 50 s
Bit rate mode               : Constant
Bit rate                    : 384 kb/s
Maximum bit rate            : 406 kb/s
Channel(s)                  : 6 channels
Channel positions           : Front: L C R, Side: L R, LFE
Sampling rate               : 48.0 kHz
Frame rate                  : 31.250 FPS (1536 SPF)
Bit depth                   : 16 bits
Compression mode            : Lossy
Stream size                 : 51.7 MiB (6%)
Title                       : Core Media Audio
Language                    : Russian
Service kind                : Complete Main
Default                     : Inherited From: 2
Alternate group             : 1
Encoded date                : UTC 2017-11-16 18:39:13
Tagged date                 : UTC 2017-11-16 18:39:16
Fallback To                 : 2
tagc                        : public.translation.voice-over

Audio #3
ID                          : 4
Format                      : AAC
Format/Info                 : Advanced Audio Codec
Format profile              : LC
Codec ID                    : 40
Duration                    : 18 min 50 s
Bit rate mode               : Variable
Bit rate                    : 152 kb/s
Maximum bit rate            : 266 kb/s
Channel(s)                  : 2 channels
Channel positions           : Front: L R
Sampling rate               : 48.0 kHz
Frame rate                  : 46.875 FPS (1024 SPF)
Compression mode            : Lossy
Stream size                 : 20.5 MiB (2%)
Title                       : Core Media Audio
Language                    : English
Default                     : No
Alternate group             : 1
Encoded date                : UTC 2017-11-16 18:39:13
Tagged date                 : UTC 2017-11-16 18:39:16
Fallback From               : 6

Audio #4
ID                          : 6
Format                      : AC-3
Format/Info                 : Audio Coding 3
Format settings, Endianness : Big
Codec ID                    : ac-3
Duration                    : 18 min 50 s
Bit rate mode               : Constant
Bit rate                    : 384 kb/s
Maximum bit rate            : 406 kb/s
Channel(s)                  : 6 channels
Channel positions           : Front: L C R, Side: L R, LFE
Sampling rate               : 48.0 kHz
Frame rate                  : 31.250 FPS (1536 SPF)
Bit depth                   : 16 bits
Compression mode            : Lossy
Stream size                 : 51.7 MiB (6%)
Title                       : Core Media Audio
Language                    : English
Service kind                : Complete Main
Default                     : No
Alternate group             : 1
Encoded date                : UTC 2017-11-16 18:39:13
Tagged date                 : UTC 2017-11-16 18:39:16
Fallback To                 : 4

Text #1
ID                          : 5-CC1
Format                      : EIA-608
Muxing mode                 : Final Cut
Codec ID                    : c608
Duration                    : 18 min 18 s
Bit rate mode               : Constant
Stream size                 : 0.00 Byte (0%)
Title                       : Core Media Closed Caption
Language                    : English
Forced                      : No
Encoded date                : UTC 2017-11-16 18:39:13
Tagged date                 : UTC 2017-11-16 18:39:16
CaptionServiceName          : CC1

Text #2
ID                          : 7
Format                      : Timed Text
Muxing mode                 : sbtl
Codec ID                    : tx3g
Duration                    : 18 min 18 s
Bit rate mode               : Variable
Bit rate                    : 117 b/s
Stream size                 : 15.7 KiB (0%)
Title                       : Core Media Subtitle
Language                    : English
Default                     : No
Forced                      : No
Alternate group             : 2
Encoded date                : UTC 2017-11-16 18:39:13
Tagged date                 : UTC 2017-11-16 18:39:16
tagc                        : public.accessibility.transcribes-spoken-dialog



Скриншоты:
[+] Всего файлов в раздаче - 9:
Season 11/01 The Proposal Proposal (1080p HD).m4v920.91 MB
Season 11/02 The Retraction Reaction (1080p HD).m4v950.52 MB
Season 11/03 The Relaxation Integration (1080p HD).m4v916.11 MB
Season 11/04 The Explosion Implosion (1080p HD).m4v925.94 MB
Season 11/05 The Collaboration Contamination (1080p HD).m4v854.08 MB
Season 11/06 The Proton Regeneration (1080p HD).m4v950.00 MB
Season 11/07 The Geology Methodology (1080p HD).m4v880.32 MB
Season 11/08 The Tesla Recoil (1080p HD).m4v842.24 MB
Season 11/09 The Bitcoin Entanglement (1080p HD).m4v846.77 MB

Текущая раздача:
ДатаКомментарии    РазмерПиры
2017-12-07 U Теория большого взрыва / The Big Bang Theory [11x01-09 из 24] (2017) WEB-DL 1080p | Кураж-Бамбей 7.90 GB ↑ 45 ↓ 115

Показать еще раздачи по запросу теория:
2017-12-13 U Теория большого взрыва / The Big Bang Theory [11x01-10 из 24] (2017) WEB-DL 1080p | Кураж-Бамбей 8.83 GB ↑ 36 ↓ 89
2017-12-13 U Теория большого взрыва / The Big Bang Theory [11x01-10 из 24] (2017) HDTVRip | Кураж-Бамбей 2.45 GB ↑ 74 ↓ 98
2017-12-12 U Теория большого взрыва / The Big Bang Theory [11x01-10 из 24] (2017) WEBRip 720p | Кураж-Бамбей 4.92 GB ↑ 36 ↓ 366
2017-12-06 U Теория большого взрыва / The Big Bang Theory [11x01-09 из 24] (2017) WEB-DL 1080p | Кураж-Бамбей 7.90 GB ↑ 58 ↓ 205
2017-12-05 U Теория большого взрыва / The Big Bang Theory [11x01-09 из 24] (2017) HDTVRip | Кураж-Бамбей 2.20 GB ↑ 71 ↓ 319
2017-11-23 U Теория большого взрыва / The Big Bang Theory [11x01-08 из 24] (2017) HDTVRip | Кураж-Бамбей 1К1.96 GB ↑ 134 ↓ 344
2017-11-15 U Теория большого взрыва / The Big Bang Theory [11x01-07 из 24] (2017) HDTVRip | Кураж-Бамбей 1.71 GB ↑ 47 ↓ 86

Отзывы
Зарегистрируйтесь чтобы добавить комментарий.
Обратная связь
Copyleft ©