↑↓Torrent.by
Поиск
Логин: Регистрация
Пароль: Восстановить пароль
Загрузка...

Безумные соседи / À bras ouverts (2017) BDRip-AVC от ExKinoRay | iTunes

Скачать bezumnye-sosedi-bras-ouverts-2017-bdrip-avc-ot-exkinoray-itunes.torrent
U Магнитная ссылка Размер: 746.85 MB Раздают: 47 Качают: 10 Добавлен: 2017-12-07 17:47:34
Безумные соседи / À bras ouverts (2017) BDRip-AVC от ExKinoRay | iTunes

Название: Безумные соседи
Оригинальное название: À bras ouverts
Год выхода: 2017
Жанр: Комедия
Режиссер: Филипп де Шоврон
В ролях: Кристиан Клавье, Эри Абиттан, Эльза Зильберштейн, Сириль Леконт, Нану Гарсия, Оскар Берт, Мирела Николау, София Мануша, Иоана Висалон, Никита Драгомир

О фильме:
В запале предвыборных дебатов рафинированный буржуа Жан-Этьен Фужероль неосторожно бросает с экрана телевизора, что его любимая Франция открыта для любых иммигрантов, они повсюду найдут себе кров и еду, даже в его доме. Не проходит и суток, как у его ворот появляется цыганский табор во главе с наглецом Бабиком. Не пустить - потерять голоса избирателей. Размеренной семейной жизни приходит конец: нежданные гости плавают в крытом бассейне, устраивают концерты во дворе, обживают хозяйский туалет, пьют коллекционные вина и даже пытаются приударить за женой Жан-Этьена.

 
Выпущено: Франция, Бельгия, Camera One, Ouille Productions, Pulsar Productions
Продолжительность: 01:32:13
Перевод: Дублированный | iTunes

Файл
Кодек: H.264
Качество: BDRip (AVC)
Видео: MPEG-4 AVC, 1059 Кбит/с, 720x388
Звук: Русский (AAC, 2 ch, 72 Кбит/сс)
Субтитры: Нет

Релиз:


[+] MediaInfo
Формат                                   : Matroska
Версия формата                           : Version 4 / Version 2
Размер файла                             : 747 Мбайт
Продолжительность                        : 1 ч. 32 м.
Общий поток                              : 1131 Кбит/сек
Название фильма                          : A.Bras.Ouverts.2017.BDRip.(AVC).ExKinoRay
Дата кодирования                         : UTC 2017-12-06 21:01:44
Программа кодирования                    : mkvmerge v17.0.0 ('Be Ur Friend') 64-bit
Библиотека кодирования                   : libebml v1.3.5 + libmatroska v1.4.8

Видео
Идентификатор                            : 1
Формат                                   : AVC
Формат/Информация                        : Advanced Video Codec
Профиль формата                          : High@L4.1
Параметр CABAC формата                   : Да
Параметр ReFrames формата                : 10 кадров
Идентификатор кодека                     : V_MPEG4/ISO/AVC
Продолжительность                        : 1 ч. 32 м.
Битрейт                                  : 1059 Кбит/сек
Ширина                                   : 720 пикселей
Высота                                   : 388 пикселей
Соотношение сторон                       : 1,85:1
Режим частоты кадров                     : Постоянный
Частота кадров                           : 24,000 кадра/сек
Цветовое пространство                    : YUV
Субдискретизация насыщенности            : 4:2:0
Битовая глубина                          : 8 бит
Тип развёртки                            : Прогрессивная
Бит/(Пиксели*Кадры)                      : 0.158
Размер потока                            : 698 Мбайт (93%)
Заголовок                                : ExKinoRay
Библиотека кодирования                   : x264 core 152 r2851 ba24899
Настройки программы                      : cabac=1 / ref=10 / deblock=1:-2:-2 / analyse=0x3:0x133 / me=umh / subme=11 / psy=1 / psy_rd=1.00:0.00 / mixed_ref=1 / me_range=32 / chroma_me=1 / trellis=2 / 8x8dct=1 / cqm=0 / deadzone=21,11 / fast_pskip=0 / chroma_qp_offset=-3 / threads=6 / lookahead_threads=1 / sliced_threads=0 / nr=0 / decimate=0 / interlaced=0 / bluray_compat=0 / constrained_intra=0 / bframes=10 / b_pyramid=2 / b_adapt=2 / b_bias=0 / direct=3 / weightb=1 / open_gop=0 / weightp=2 / keyint=240 / keyint_min=23 / scenecut=40 / intra_refresh=0 / rc_lookahead=40 / rc=2pass / mbtree=0 / bitrate=1059 / ratetol=1.0 / qcomp=0.60 / qpmin=0 / qpmax=69 / qpstep=4 / cplxblur=20.0 / qblur=0.5 / vbv_maxrate=50000 / vbv_bufsize=62500 / nal_hrd=none / filler=0 / ip_ratio=1.40 / pb_ratio=1.30 / aq=2:1.00
Язык                                     : French
Default                                  : Да
Forced                                   : Нет

Аудио
Идентификатор                            : 2
Формат                                   : AAC
Формат/Информация                        : Advanced Audio Codec
Профиль формата                          : LC
Идентификатор кодека                     : A_AAC
Продолжительность                        : 1 ч. 32 м.
Битрейт                                  : 72,0 Кбит/сек
Каналы                                   : 2 канала
Расположение каналов                     : Front: L R
Частота                                  : 48,0 КГц
Частота кадров                           : 46,875 кадров/сек (1024 spf)
Метод сжатия                             : С потерями
Задержка видео                           : 9 мс.
Размер потока                            : 47,5 Мбайт (6%)
Язык                                     : Russian
Default                                  : Да
Forced                                   : Нет

Меню
00:00:00.000                             : fr:Chapitre 01
00:07:40.500                             : fr:Chapitre 02
00:13:22.375                             : fr:Chapitre 03
00:21:33.625                             : fr:Chapitre 04
00:27:51.875                             : fr:Chapitre 05
00:35:08.083                             : fr:Chapitre 06
00:42:06.458                             : fr:Chapitre 07
00:51:13.458                             : fr:Chapitre 08
00:57:47.416                             : fr:Chapitre 09
01:03:44.541                             : fr:Chapitre 10
01:13:09.333                             : fr:Chapitre 11
01:24:02.750                             : fr:Chapitre 12



Скриншоты:
[+] Всего файлов в раздаче - 1:
A.Bras.Ouverts.2017.x264.BDRip.(AVC).ExKinoRay.mkv746.85 MB

Текущая раздача:
ДатаКомментарии    РазмерПиры
2017-12-07 U Безумные соседи / À bras ouverts (2017) BDRip-AVC от ExKinoRay | iTunes 746.85 MB ↑ 47 ↓ 10

Показать еще раздачи по запросу безумные:
2017-12-13 U Безумные соседи / À bras ouverts (2017) BDRip от ExKinoRay | iTunes 1.42 GB ↑ 69 ↓ 27
2017-12-08 U Безумные соседи / À bras ouverts (2017) BDRip-AVC от HELLYWOOD | iTunes 1К2.14 GB ↑ 34 ↓ 15
2017-12-07 U Безумные соседи / À bras ouverts (2017) BDRip-AVC от HELLYWOOD | iTunes 1.42 GB ↑ 49 ↓ 37
2017-12-06 U Безумные соседи / À bras ouverts (2017) BDRip 1080p от ExKinoRay | iTunes 11.85 GB ↑ 55 ↓ 62
2017-12-06 U Безумные соседи / À bras ouverts (2017) BDRemux 1080p от ExKinoRay | iTunes 1К25.92 GB ↑ 53 ↓ 20
2017-12-06 U Безумные соседи / À bras ouverts (2017) HDRip от MegaPeer | iTunes 746.35 MB ↑ 53 ↓ 29
2017-12-05 U Безумные соседи / À bras ouverts (2017) BDRip от MegaPeer | iTunes 1.42 GB ↑ 169 ↓ 113

Отзывы
Зарегистрируйтесь чтобы добавить комментарий.
Обратная связь
Copyleft ©