↑↓Torrent.by
Поиск
Логин: Регистрация
Пароль: Восстановить пароль
Загрузка...

Бокс. Василий Ломаченко - Гильермо Ригондо / Vasyl Lomachenko vs. Guillermo Rigondeaux [09.12] (2017) HDTVRip 720p | 50 fps

Скачать boks-vasiliy-lomachenko-gilermo-rigondo-vasyl-vs-guillermo-rigondeaux-09-12-2017-hdtvrip-720p-50-fps.torrent
U Магнитная ссылка Размер: 1.72 GB Раздают: 190 Качают: 77 Добавлен: 2017-12-10 15:47:57
Бокс. Василий Ломаченко - Гильермо Ригондо / Vasyl Lomachenko vs. Guillermo Rigondeaux [09.12] (2017) HDTVRip 720p | 50 fps

Год Выпуска: 2017
Вид Спорта: Бокс
Продолжительность:
Комментарий:
Язык Комментария: Русский (Одноголосый), Интершум

Описание:
Исторический поединок пройдет 9 декабря в Нью-Йорке на Madison Square Garden Theater – впервые в истории бокса на ринг выйдут двукратные олимпийские чемпионы. Кубинец Гильермо Ригондо брал "золото" Олимпиады в 2000 и 2004 годах, украинец Василий Ломаченко – в 2008 и 2012.
Бой Ломаченко – Ригондо пройдет рано утром в воскресенье по киевскому времени. По итогам официального взвешивания за сутки до поединка Ломаченко оказался тяжелее Ригондо на 300 грамм. Вес украинца – 58,5 кг, кубинского боксера – 58,2 кг.
Ломаченко – фаворит у букмекеров. Коэффициент на победу украинского боксера 1,22, тогда как на победу Ригондо – 5, а на ничью – 28.
Ориентировочное время начала боя Ломаченко – Ригондо – 06:00 утра 10 декабря.

Качество: HDTVRip
Формат: mkv
Видео Кодек: H.264
Аудио Кодек: AC3
Видео: 1280x720 (16/9), 50,000fps, 4,2 Мбит/сек, crf=21.5
Аудио #01:  48.0 KHz, AC3, 2 ch, 128 Kbps [Русский]
Аудио #02:  48.0 KHz, AC3, 2 ch, 128 Kbps [Интершум]
[+] Скрытый текст
00:55:39



[+] MediaInfo:

Общее
Уникальный идентификатор                 : 254890710131292203681710451428036596972 (0xBFC22A4539BE808DB8AC6026F42E54EC)
Полное имя                               : D:Фільми(2017.12.09)Boxing.Vasyl.Lomachenko.vs.Guillermo.Rigondeaux.HDTVRip.720p.mkv
Формат                                   : Matroska
Версия формата                           : Version 4 / Version 2
Размер файла                             : 1,72 Гбайт
Продолжительность                        : 55 м. 39 с.
Общий поток                              : 4425 Кбит/сек
Дата кодирования                         : UTC 2017-12-10 09:13:36
Программа кодирования                    : mkvmerge v7.9.0 ('Birds') 64bit
Библиотека кодирования                   : libebml v1.3.1 + libmatroska v1.4.2 / Lavf54.63.104

Видео
Идентификатор                            : 1
Формат                                   : AVC
Формат/Информация                        : Advanced Video Codec
Профиль формата                          : High@L4.1
Параметр CABAC формата                   : Да
Параметр RefFrames формата               : 4 кадра
Параметр GOP формата                     : M=2, N=15
Идентификатор кодека                     : V_MPEG4/ISO/AVC
Продолжительность                        : 55 м. 39 с.
Битрейт                                  : 4166 Кбит/сек
Ширина                                   : 1280 пикселей
Высота                                   : 720 пикселей
Соотношение сторон                       : 16:9
Режим частоты кадров                     : Постоянный
Частота кадров                           : 50,000 кадров/сек
Цветовое пространство                    : YUV
Субдискретизация насыщенности            : 4:2:0
Битовая глубина                          : 8 бит
Тип развёртки                            : Прогрессивная
Бит/(Пиксели*Кадры)                      : 0.090
Размер потока                            : 1,62 Гбайт (94%)
Default                                  : Нет
Forced                                   : Нет

Аудио #1
Идентификатор                            : 2
Формат                                   : AC-3
Формат/Информация                        : Audio Coding 3
Параметр Endianness формата              : Big
Идентификатор кодека                     : A_AC3
Продолжительность                        : 55 м. 39 с.
Вид битрейта                             : Постоянный
Битрейт                                  : 128 Кбит/сек
Каналы                                   : 2 канала
Расположение каналов                     : Front: L R
Частота                                  : 48,0 КГц
Частота кадров                           : 31,250 кадров/сек (1536 SPF)
Битовая глубина                          : 16 бит
Метод сжатия                             : С потерями
Размер потока                            : 51,0 Мбайт (3%)
Язык                                     : Russian
ServiceKind/String                       : Complete Main
Default                                  : Да
Forced                                   : Нет

Аудио #2
Идентификатор                            : 3
Формат                                   : AC-3
Формат/Информация                        : Audio Coding 3
Параметр Endianness формата              : Big
Идентификатор кодека                     : A_AC3
Продолжительность                        : 55 м. 39 с.
Вид битрейта                             : Постоянный
Битрейт                                  : 128 Кбит/сек
Каналы                                   : 2 канала
Расположение каналов                     : Front: L R
Частота                                  : 48,0 КГц
Частота кадров                           : 31,250 кадров/сек (1536 SPF)
Битовая глубина                          : 16 бит
Метод сжатия                             : С потерями
Размер потока                            : 51,0 Мбайт (3%)
ServiceKind/String                       : Complete Main
Default                                  : Нет
Forced                                   : Нет




Скриншоты:
[+] Всего файлов в раздаче - 1:
(2017.12.09)Boxing.Vasyl.Lomachenko.vs.Guillermo.Rigondeaux.HDTVRip.720p.mkv1.72 GB

Текущая раздача:
ДатаКомментарии    РазмерПиры
2017-12-10 U Бокс. Василий Ломаченко - Гильермо Ригондо / Vasyl Lomachenko vs. Guillermo Rigondeaux [09.12] (2017) HDTVRip 720p | 50 fps 1.72 GB ↑ 190 ↓ 77

Показать еще раздачи по запросу бокс:
2018-04-03 U Бокс. Александр Поветкин - Дэвид Прайс [31.03] (2018) WEBRip 271.47 MB ↑ 53 ↓ 18
2018-02-06 U Бокс. Всемирная боксерская суперсерия. 1/2 финала. Мурат Гассиев - Юниер Дортикос [03.02] (2018) IPTV 1080i 5.03 GB ↑ 74 ↓ 7
2018-02-06 U Бокс. Всемирная боксерская суперсерия. 1/2 финала. Мурат Гассиев - Юниер Дортикос [03.02] (2018) IPTVRip 737.34 MB ↑ 229 ↓ 20
2017-12-16 U Бокс. Александр Поветкин - Кристиан Хаммер + Андеркарт [15.12] (2017) HDTVRip 1.90 GB ↑ 101 ↓ 80
2017-12-16 U Бокс. Александр Поветкин - Кристиан Хаммер [15.12] (2017) IPTV 1080i 6.69 GB ↑ 122 ↓ 102
2017-12-10 U Бокс. Василий Ломаченко - Гильермо Ригондо [10.12] (2017) HDTV 1080p 2.57 GB ↑ 133 ↓ 53
2017-11-26 U Бокс. Бой за вакантный титул чемпиона мира WBO в полутяжелом весе. Сергей Ковалёв - Вячеслав Шабранский [25.11] (2017) HDTV 1080i 1.21 GB ↑ 52 ↓ 37

Отзывы
Зарегистрируйтесь чтобы добавить комментарий.
Обратная связь
Copyleft ©